вход на сайт

Имя пользователя :
Пароль :

Восстановление пароля Регистрация
(2011) КняZz / Письмо из Трансильвании (Punk-Rock) [APE (image+.сue), lossless]
Рейтинг:
(голосов: 1)



[img]{THEME}/images/logopost.png[/img]





Альбом: Письмо из Трансильвании
Тип альбома: Студийный
Год выпуска: 2011
Страна: Россия
Жанр: Punk-Rock
Формат: APE (image+.сue)
Битрейт: lossless
Log-файл: Присутствует
Продолжительность: 00:47:08



01. Адель (04:28)
02. В пасти темных улиц (04:16)
03. Вервольф (02:30)
04. Байкеры (03:33)
05. Бей, Фреди! (03:30)
06. Человек-Загадка (04:53)
07. Серый Кардинал (03:23)
08. Мистер Шок (04:10)
09. Триумф (03:03)
10. Письмо из Трансильвании (03:41)
11. Алло, гараж! (03:43)
12. Воланд прав! (03:13)
13. Стальные кандалы (Бонус-трек) (02:39)


Отчет "EAC" ▼Text
Exact Audio Copy V0.99 prebeta 5 from 4. May 2009

Отчёт EAC об извлечении, выполненном 8. октября 2011, 18:23

Unknown Artist / Unknown Title

Дисковод: ASUS DRW-2014L1T Adapter: 1 ID: 0

Режим чтения : Достоверность
Использование точного потока : Да
Отключение кэша аудио : Да
Использование указателей C2 : Нет

Коррекция смещения при чтении : 6
Способность читать области Lead-in и Lead-out : Нет
Заполнение пропущенных сэмплов тишиной : Да
Удаление блоков с тишиной в начале и конце : Нет
При вычислениях CRC использовались нулевые сэмплы : Да
Интерфейс : Установленный внешний ASPI-интерфейс

Выходной формат : Внутренние WAV-операции
Формат сэмплов : 44.100 Гц; 16 бит; стерео


TOC извлечённого CD

Трек | Старт | Длительность | Начальный сектор | Конечный сектор
---------------------------------------------------------------------
1 | 0:00.00 | 4:28.68 | 0 | 20167
2 | 4:28.68 | 4:16.27 | 20168 | 39394
3 | 8:45.20 | 2:30.15 | 39395 | 50659
4 | 11:15.35 | 3:33.24 | 50660 | 66658
5 | 14:48.59 | 3:30.13 | 66659 | 82421
6 | 18:18.72 | 4:53.74 | 82422 | 104470
7 | 23:12.71 | 3:23.31 | 104471 | 119726
8 | 26:36.27 | 4:10.30 | 119727 | 138506
9 | 30:46.57 | 3:03.23 | 138507 | 152254
10 | 33:50.05 | 3:41.67 | 152255 | 168896
11 | 37:31.72 | 3:43.03 | 168897 | 185624  
354a8a9b94ee9026321d0a6d2fac3aa1446ca067(2011) КняZz / Письмо из Трансильвании (Punk-Rock) [APE (image+.сue), lossless] (2011) КняZz / Письмо из Трансильвании (Punk-Rock) [APE (image+.сue), lossless] " />

Аплоадер: Админ, дата: 4-05-2012, 23:58, торрент скачан: 359 раз

Понравилась раздача? Посмотрите эти:
  • (2000) Lenny Kravitz / Greatest Hits (Rock, Funk) [FLAC (image+.cue), lossl ...
  • (1992) Smokie / The Story Of Smokie (2CD Set Germany, BMG, Ariola) (Rock) [ ...
  • (2009) Воскресение / The Best (Rock ) [APE (image + .cue), lossless]
  • (2012) Григорий Лепс / Полный вперёд (Шансон) [FLAC (image+.cue), Lossless ...
  • (2000) Tic Tac Toe / Ist der Ruf erst ruiniert... (Rap,Hip-hop) [Lossless, ...
  • (2008) НоГГано / Первый (Rap) [APE(image+cue), lossless]
  • (1994) Joy / Grand Collection (EuroDisco) [FLAC (image+.cue) lossless]
  • (2010) Баста / Баста 3 (Rap) [APE (image+.cue), lossless]
  • (2010) ST1M / Октябрь (Rap) [APE(image+.cue), lossless]
  • (2010) ДиДюЛя / Аромат (flamenco, instrumental, folk) [APE (image + .cue), ...
  • (1984) Boney M / Ten Thousand Lightyears (Disco) [APE (image+.cue) lossles ...
  • (2010) ДаБац (Da Budz) / Вершки Да Корешки(Rap) [APE (image+.cue), lossless ...
  • (2011) Within Temptation / The Unforgiving (Symphonic Gothic Metal) [FLAC ( ...
  • (2011) АлисА / 20.12 (Русский Рок) [WavPack (image+.cue), lossless]
  • (2011) Blues Cousins / KGB Blues (Blues Rock) [FLAC (image+.cue), lossless] ...
  • (2005) плюм-Бум / Чистая правда (Funk, Reggae, Pop-Punk) [APE(image+.cue), ...
  • (2011) АукцЫон / Юла (Rock) [APE (image+.cue), lossless]
  • (2009) Rihanna / Rated R (R`n`B) [APE (image+.cue)]
  • (Дискография) СЕКТОР ГАЗА {11CD из серии "Коллекция" (DADC Austri ...
  • (2009, Cборник) Madonna / Greatest Hits [CD1 + CD2] (Pop) [APE (image+.cue) ...
  • (2011) N1NT3NDO / N1NT3NDO (Rap) [APE (image+.сue), lossless]
  • (1995) Юрий Шатунов / Ты помнишь... (Pop) [FLAC(image+.cue), lossless]
  • (2004) Ex-Сектор Газа / Огненный рай (Punk-Rock) [FLAC (image+.cue), lossle ...
  • (2008) Студия 80 / Придуманный Мир (Pop) [FLAC (image+.cue), lossless]
  • (Дискография, 2005-2011) КняZz (Князь) (Punk Rock/Hard Rock) [MP3, 320/CBR] ...
  • Информация
    Посетители, находящиеся в группе Гости, не могут оставлять комментарии к данной публикации.