вход на сайт

Имя пользователя :
Пароль :

Восстановление пароля Регистрация
(2011) Yellowcard / Greatest Hits (Japan Edition) (Punk) [FLAC (image+.cue), lossless]
Рейтинг:
(голосов: 1)



[img]{THEME}/images/logopost.png[/img]





Альбом: Greatest Hits (Japan Edition)
Тип альбома: Компиляция
Год выпуска: 2011
Страна: США
Жанр: Punk
Формат: FLAC (image+.cue)
Битрейт: lossless
Log-файл: Присутствует
Продолжительность: 00:57:53


01. THE TAKEDOWN(3:37)
02. FIGHTING(3:01)
03. SHRINK THE WORLD(3:22)
04. WAY AWAY(3:23)
05. LIFE OF A SALESMAN(3:22)
06. DOWN ON MY HEAD(3:34)
07. _ ROUGH LANDING. HOLLY(3:37)
08. FIVE BECOMES FOUR(3:32)
09. ONLY ONE(4:20)
10. BELIEVE(4:31)
11. _ LIGHTS AND SOUNDS(3:31)
12. EMPTY APARTMENT(3:40)
13. LIGHT UP THE SKY(3:39)
14. OCEAN AVENUE(3:20)
15. HOLLY WOOD DIED(3:58)
16. DOWN ON MY HEAD(3:26)


Отчет "EAC" ▼Textact Audio Copy V1.0 beta 1 from 15. November 2010

EAC extraction logfile from 23. March 2012, 23:10

Yellowcard / Greatest Hits

Used drive : TSSTcorpCD/DVDW SH-S182D Adapter: 0 ID: 1

Read mode : Secure
Utilize accurate stream : Yes
Defeat audio cache : Yes
Make use of C2 pointers : No

Read offset correction : 6
Overread into Lead-In and Lead-Out : No
Fill up missing offset samples with silence : Yes
Delete leading and trailing silent blocks : No
Null samples used in CRC calculations : Yes
Used interface : Native Win32 interface for Win NT & 2000

Used output format : Пользовательский кодировщик
Selected bitrate : 896 kBit/s
Quality : High
Add ID3 tag : No
Command line compressor : C:Program Files (x86)FLACеуыыflac.exe
Additional command line options : -8 -V %s

TOC of the extracted CD

Track | Start | Length | Start sector | End sector
---------------------------------------------------------
1 | 0:00.00 | 3:36.69 | 0 | 16268
2 | 3:36.69 | 3:00.69 | 16269 | 29837
3 | 6:37.63 | 3:21.73 | 29838 | 44985
4 | 9:59.61 | 3:22.69 | 44986 | 60204
5 | 13:22.55 | 3:21.58 | 60205 | 75337
6 | 16:44.38 | 3:33.53 | 75338 | 91365
7 | 20:18.16 | 3:36.38 | 91366 | 107603
8 | 23:54.54 | 3:32.35 | 107604 | 123538
9 | 27:27.14 | 4:20.35 | 123539 | 143073
10 | 31:47.49 | 4:30.49 | 143074 | 163372
11 | 36:18.23 | 3:31.14 | 163373 | 179211
12 | 39:49.37 | 3:39.54 | 179212 | 195690
13 | 43:29.16 | 3:39.14 | 195691 | 212129
14 | 47:08.30 | 3:20.23 |
0ce075249fafb9d3a68e6bbadc4d00f8425f0ba2(2011) Yellowcard / Greatest Hits (Japan Edition) (Punk) [FLAC (image+.cue), lossless] (2011) Yellowcard / Greatest Hits (Japan Edition) (Punk) [FLAC (image+.cue), lossless] " />

Аплоадер: Админ, дата: 12-04-2012, 10:41, торрент скачан: 359 раз

Понравилась раздача? Посмотрите эти:
  • (1996) George Michael / Older (1st Press Japan) (Electronic, Pop/Rock) [FLA ...
  • (2012) Matt Bianco / Hideaway (Japan CD) (Smooth Jazz, Fusion, Latin-Pop) [ ...
  • (Jazz) LOUIS ARMSTRONG — Louis Armstrongs All Time Greatest Hits — 2003, F ...
  • (1991) James Brown - 20 All-Time Greatest Hits![FLAC (tracks+.cue) lossless ...
  • (2007) GORILLAZ / D-Sides [Japan Edition] (Hip-Hop) [FLAC (image+cue), loss ...
  • (2009) SHAKIRA / She Wolf (US Edition) (Pop) [Flac (tracks+.cue), lossless] ...
  • (2010) Ассаи / Лифт (Rap) [FLAC(image+.cue), lossless]
  • (2010) Michael Jackson - Michael (Pop) [FLAC, (tracks+.cue), lossless]
  • (2010) Bloodhound Gang / Show Us Your Hits (Alternative Rock,Comedy Punk) [ ...
  • (2010) YELLO / Yello By Yello. The Anthology (Limited Deluxe Edition 3CD+D ...
  • (2011) Hollywood Undead / American Tragedy (Deluxe Edition) (Alternative/Hi ...
  • (2011, сборник) ATB / Greatest Hits (Trance) [FLAC (tracks+.сue), lossless] ...
  • (2010) 2Pac / Greatest Hits (Rap & Hip Hop) [APE (image+.cue), lossless]
  • (1993) Крис Кельми / Greatest Hits (Pop-Rock) [FLAC (image+.cue), lossless] ...
  • (1976) The Eagles / Hotel California [Japan Remastered] (Country Rock) [FLA ...
  • (2011) Yanni / Truth Of Touch (New Age) [FLAC (image+ .cue),lossless]
  • (Full Studio Discography, 2011) George Michael (Japan) (Pop) [FLAC (image+. ...
  • (2008) Scars on Broadway / Scars on Broadway (Japan Edition) (Alt.Metal/Exp ...
  • (2011) Слот / F5 (Alternative Metal) [FLAC (image+.cue)lossless]
  • (2011) Слот / Break The Code (Alternative Metal) [FLAC (image+.cue)lossless ...
  • Информация
    Посетители, находящиеся в группе Гости, не могут оставлять комментарии к данной публикации.