вход на сайт

Имя пользователя :
Пароль :

Восстановление пароля Регистрация
(2009) Miley Cyrus / The Time of Our Lives (Pop) [FLAC (tracks+.cue), lossless]
Рейтинг:
(голосов: 1)



[img]{THEME}/images/logopost.png[/img]



Исполнитель: Miley Cyrus
Альбом: The Time of Our Lives
Тип альбома: Студийный
Год выпуска: 2009
Жанр: Pop
Формат: tracks+.cue
Битрейт: lossless
Log-файл: Присутствует
Продолжительность: 00:26:24

Tреклист:
1. Kicking And Screaming
2. Party In The USA
3. When I Look At You
4. Time Of Our Lives
5. Talk Is Cheap
6. Obsessed
7. Before The Storm - with The Jonas Brothers (live)

"Отчет EAC" ▼Exact Audio Copy V0.99 prebeta 5 from 4. May 2009
EAC extraction logfile from 11. September 2009, 16:18
Miley Cyrus / The Time Of Our Lives
Used drive : SONY DVD RW AW-G540A Adapter: 0 ID: 0
Read mode : Secure
Utilize accurate stream : Yes
Defeat audio cache : Yes
Make use of C2 pointers : No
Read offset correction : 48
Overread into Lead-In and Lead-Out : No
Fill up missing offset samples with silence : Yes
Delete leading and trailing silent blocks : No
Null samples used in CRC calculations : Yes
Used interface : Installed external ASPI interface
Gap handling : Appended to previous track
Used output format : User Defined Encoder
Selected bitrate : 192 kBit/s
Quality : High
Add ID3 tag : No
Command line compressor : C:Program FilesExact Audio CopyFlacflac.exe
Additional command line options : -8 -V -T "artist=%a" -T "title=%t" -T "album=%g" -T "date=%y" -T "tracknumber=%n" -T "genre=%m" %s --sector-align
TOC of the extracted CD
Track | Start | Length | Start sector | End sector
---------------------------------------------------------
1 | 0:00.00 | 2:58.45 | 0 | 13394
2 | 2:58.45 | 3:22.24 | 13395 | 28568
3 | 6:20.69 | 4:09.57 | 28569 | 47300
4 | 10:30.51 | 3:33.28 | 47301 | 63303
5 | 14:04.04 | 3:40.47 | 63304 | 79850
6 | 17:44.51 | 4:03.72 | 79851 | 98147
7 | 21:48.48 | 4:35.31 | 98148 | 118803
Track 1
Filename C:Documents and SettingsrCDesktopEAC MusicMiley Cyrus - The Time Of Our Lives (2009) [FLAC]1 - Kicking And Screaming.wav
Pre-gap length 0:00:02.00
Peak level 99.9 %
Track quality 100.0 %
Test CRC 066DAFF5
Copy CRC 066DAFF5
Track not present in AccurateRip database
Copy OK
Track 2
Filename C:Documents and SettingsrCDesktopEAC MusicMiley Cyrus - The Time Of Our Lives (2009) [FLAC]2 - Party In The USA.wav
Pre-gap length 0:00:00.26
Peak level 97.7 %
Track quality 100.0 %
Test CRC 5F903CA3
Copy CRC 5F903CA3
Track not present in AccurateRip database
Copy OK
Track 3
Filename C:Documents and SettingsrCDesktopEAC MusicMiley Cyrus - The Time Of Our Lives (2009) [FLAC]3 - When I Look At You.wav
Pre-gap length 0:00:00.25
Peak level 100.0 %
Track quality 100.0 %
Test CRC 728375FC
Copy CRC 728375FC
Track not present in AccurateRip database
Copy OK
Track 4
Filename C:Documents and SettingsrCDesktopEAC MusicMiley Cyrus - The Time Of Our Lives (2009) [FLAC]4 - Time Of Our Lives.wav
Pre-gap length 0:00:01.17
Peak level 98.8 %
Track quality 100.0 %
Test CRC 8A06EE58
Copy CRC 8A06EE58
Track not present in AccurateRip database
Copy OK
Track 5
Filename C:Documents and SettingsrCDesktopEAC MusicMiley Cyrus - The Time Of Our Lives (2009) [FLAC]5 - Talk Is Cheap.wav
Pre-gap length 0:00:01.08
Peak level 100.0 %
Track quality 100.0 %
Test CRC 094C53D0
Copy CRC 094C53D0
Track not present in AccurateRip database
Copy OK
Track 6
Filename C:Documents and SettingsrCDesktopEAC MusicMiley Cyrus - The Time Of Our Lives (2009) [FLAC]6 - Obsessed.wav
Pre-gap length 0:00:00.16
Peak level 93.3 %
Track quality 100.0 %
Test CRC 2CDBC517
Copy CRC 2CDBC517
Track not present in AccurateRip database
Copy OK
Track 7
Filename C:Documents and SettingsrCDesktopEAC MusicMiley Cyrus - The Time Of Our Lives (2009) [FLAC]7 - Before The Storm (Live).wav
Pre-gap length 0:00:00.38
Peak level 99.8 %
Track quality 100.0 %
Test CRC 4464EF2A
Copy CRC 4464EF2A
Track not present in AccurateRip database
Copy OK
None of the tracks are present in the AccurateRip database
No errors occurred
End of status report
"Отчет Audiochecker" ▼Started at: понедельник, 05. 10. 2009.
18514dc2389e8488bda52f635f53223d0b68f74b(2009) Miley Cyrus / The Time of Our Lives (Pop) [FLAC (tracks+.cue), lossless] (2009) Miley Cyrus / The Time of Our Lives (Pop) [FLAC (tracks+.cue), lossless] " />

Аплоадер: Админ, дата: 14-09-2010, 17:54, торрент скачан: 359 раз

Понравилась раздача? Посмотрите эти:
  • (2013) Girls Generation (SNSD) - Galaxy Supernova / Galaxy Supernova (KPop) ...
  • (2009) The Black Eyed Peas / The E.N.D. (The Energy Never Dies) (Target Del ...
  • (Дискография) GORILLAZ (Trip-Hop) [FLAC (tracks + .cue) lossless]
  • (2011) Sepultura / Kairos (Thrash Metal) [Flac(image+.cue)lossless]
  • (2008) Karunesh /Enlightenment (New Age) [FLAC (image+.cue), lossless]
  • (2011) Orjan Nilsen / In My Opinion (Trance) [FLAC (tracks+.cue), lossless] ...
  • (2002) PPK (ППК) / ReLoad. Russian Trance (Trance) [FLAC (tracks+cue), loss ...
  • (2010, сборник) VA / CDeelder Box (Swing) [FLAC (tracks+.cue), lossless]
  • (2001-2003, сборник) VA / Acoustic Café (4xCD) (Classical, New Age) [FLAC ( ...
  • (2009) CHRIS BROWN / Graffiti original (Deluxe Edition) + Bonus tracks (RnB ...
  • (2012) High Contrast / The Agony & The Ecstasy (Drum and Bass) [FLAC (track ...
  • (2006) The Rasmus / Shot (Single) (Alternative Rock) [FLAC (tracks+.cue), l ...
  • (2009) Serge Devant / Wanderer (House) [FLAC (tracks+.cue), lossless]
  • (2008) Miley Cyrus - Breakout (Platinum Edition) (Pop) [FLAC (tracks+.cue), ...
  • (2011) VA / Танцевальный Рай 27 (Pop) [FLAC (image+.cue), lossless]
  • (2011) Linkin Park / Iridescent (Alternative Rock) [FLAC(image+.cue), lossl ...
  • (2011) Rammstein / Mein Land (Neue Deutsche Harte, Industrial, Tanz-Metal) ...
  • (Дискография, 2008-2010) Suffokate (Deathcore) [FLAC (tracks+.cue), lossles ...
  • (Дискография, 2010-2011) Chelsea Grin (Deathcore) [FLAC (tracks+.cue), loss ...
  • (2011) Сурганова & Оркестр / Увидимся скоро (Rock) [FLAC (image+.cue), loss ...
  • (2011) This Will Destroy You / Tunnel Blanket (Post Rock) [FLAC (tracks+.cu ...
  • (2011) Metallica / Beyond Magnetic (Thrash Metal) [FLAC (image+.cue), lossl ...
  • (2010) Татьяна Буланова / Романсы (Pop) [FLAC (image+.cue), lossless]
  • (2012) KoRn feat. Skrillex / Chaos Lives In Everything (UK Promo) (Nu-metal ...
  • (2011) Ink Stained Promises / Relations. (Metalcore, Hardcore) [FLAC (track ...
  • Информация
    Посетители, находящиеся в группе Гости, не могут оставлять комментарии к данной публикации.