вход на сайт

Имя пользователя :
Пароль :

Восстановление пароля Регистрация
(2008) Miley Cyrus - Breakout (Platinum Edition) (Pop) [FLAC (tracks+.cue), lossless]
Рейтинг:
(голосов: 1)



[img]{THEME}/images/logopost.png[/img]



Исполнитель: Miley Cyrus
Альбом: Breakout (Platinum Edition)
Тип альбома: Студийный
Год выпуска: 2008
Жанр: Pop
Формат: tracks+.cue
Битрейт: lossless
Log-файл: Присутствует
Продолжительность: 00:45:16

Tреклист:
01. Breakout [03:26]
02. 7 Things [03:33]
03. The Driveway [03:43]
04. Girls Just Wanna Have Fun [03:06]
05. Full Circle [3:14]
06. Fly on the Wall [02:31]
07. Bottom of the Ocean [03:15]
08. Wake Up America [02:46]
09. These Four Walls [03:28]
10. Simple Song [03:32]
11. Goodbye [03:53]
12. See You Again (Rock Mafia Remix) [03:19]
13. Hovering (Bonus track) [02:30]
14. Someday (Bonus track) [03:03]

"Отчет EAC" ▼Exact Audio Copy V0.99 prebeta 4 from 23. January 2008
EAC extraction logfile from 9. December 2008, 19:06
Miley Cyrus / Breakout (Platinum Edition)
Used drive : TSSTcorpCD/DVDW SH-S182M Adapter: 3 ID: 1
Read mode : Secure
Utilize accurate stream : Yes
Defeat audio cache : Yes
Make use of C2 pointers : No
Read offset correction : 6
Overread into Lead-In and Lead-Out : No
Fill up missing offset samples with silence : Yes
Delete leading and trailing silent blocks : No
Null samples used in CRC calculations : Yes
Used interface : Native Win32 interface for Win NT & 2000
Gap handling : Appended to previous track
Used output format : User Defined Encoder
Selected bitrate : 320 kBit/s
Quality : High
Add ID3 tag : No
Command line compressor : C:Program FilesFLACflac.exe
Additional command line options : -V -8 -T "artist=%a" -T "title=%t" -T "album=%g" -T "date=%y" -T "tracknumber=%n" -T "genre=%m" %s
TOC of the extracted CD
Track | Start | Length | Start sector | End sector
---------------------------------------------------------
1 | 0:00.00 | 3:26.12 | 0 | 15461
2 | 3:26.12 | 3:33.34 | 15462 | 31470
3 | 6:59.46 | 3:43.06 | 31471 | 48201
4 | 10:42.52 | 3:06.32 | 48202 | 62183
5 | 13:49.09 | 3:14.36 | 62184 | 76769
6 | 17:03.45 | 2:31.60 | 76770 | 88154
7 | 19:35.30 | 3:15.07 | 88155 | 102786
8 | 22:50.37 | 2:46.39 | 102787 | 115275
9 | 25:37.01 | 3:28.10 | 115276 | 130885
10 | 29:05.11 | 3:32.01 | 130886 | 146786
11 | 32:37.12 | 3:53.50 | 146787 | 164311
12 | 36:30.62 | 3:19.12 | 164312 | 179248
13 | 39:49.74 | 2:30.35 | 179249 | 190533
14 | 42:20.34 | 3:03.02 | 190534 | 204260
15 | 47:55.36 | 1:37.41 | 215661 | 222976
Track 1
Filename E:EACFLACMiley CyrusBreakout (Platinum Edition)1 - Breakout.wav
Pre-gap length 0:00:02.00
Peak level 98.8 %
Track quality 100.0 %
Test CRC 4161D131
Copy CRC 4161D131
Track not present in AccurateRip database
Copy OK
Track 2
Filename E:EACFLACMiley CyrusBreakout (Platinum Edition)2 - 7 Things.wav
Peak level 98.8 %
Track quality 100.0 %
Test CRC 236EF676
Copy CRC 236EF676
Track not present in AccurateRip database
Copy OK
Track 3
Filename E:EACFLACMiley CyrusBreakout (Platinum Edition)3 - The Driveway.wav
Peak level 98.8 %
Track quality 100.0 %
Test CRC E8D2F4F0
Copy CRC E8D2F4F0
Track not present in AccurateRip database
Copy OK
Track 4
Filename E:EACFLACMiley CyrusBreakout (Platinum Edition)4 - Girls Just Wanna Have Fun.wav
Peak level 98.8 %
Track quality 100.0 %
Test CRC E5C4074D
Copy CRC E5C4074D
Track not present in AccurateRip database
Copy OK
Track 5
Filename E:EACFLACMiley CyrusBreakout (Platinum Edition)5 - Full Circle.wav
Peak level 98.8 %
Track quality 100.0 %
Test CRC 2D468EE7
Copy CRC 2D468EE7
Track not present in AccurateRip database
Copy OK
Track 6
Filename E:EACFLACMiley CyrusBreakout (Platinum Edition)6 - Fly On The Wall.wav
Peak level 98.8 %
Track quality 100.0 %
Test CRC 457EB97B
Copy CRC 457EB97B
Track not present in AccurateRip database
Copy OK
Track 7
Filename E:EACFLACMiley CyrusBreakout (Platinum Edition)7 - Bottom Of The Ocean.wav
Peak level 98.8 %
Track quality 100.0 %
Test CRC 4096584F
Copy CRC 4096584F
Track not present in AccurateRip database
Copy OK
Track 8
Filename E:EACFLACMiley CyrusBreakout (Platinum Edition)8 - Wak
7ee8f112312b3d23ca299f9de7139ef4bc18f66b(2008) Miley Cyrus - Breakout (Platinum Edition) (Pop) [FLAC (tracks+.cue), lossless] (2008) Miley Cyrus - Breakout (Platinum Edition) (Pop) [FLAC (tracks+.cue), lossless] " />

Аплоадер: Админ, дата: 14-09-2010, 17:36, торрент скачан: 359 раз

Понравилась раздача? Посмотрите эти:
  • (2013) Girls Generation (SNSD) - Galaxy Supernova / Galaxy Supernova (KPop) ...
  • (2009) The Black Eyed Peas / The E.N.D. (The Energy Never Dies) (Target Del ...
  • (Дискография) GORILLAZ (Trip-Hop) [FLAC (tracks + .cue) lossless]
  • (2011) Bad Meets Evil [Eminem & Royce Da 59] / Hell: The Sequel [Deluxe Edi ...
  • (2011) Sepultura / Kairos (Thrash Metal) [Flac(image+.cue)lossless]
  • (2008) Karunesh /Enlightenment (New Age) [FLAC (image+.cue), lossless]
  • (2011) Orjan Nilsen / In My Opinion (Trance) [FLAC (tracks+.cue), lossless] ...
  • (2010, сборник) VA / CDeelder Box (Swing) [FLAC (tracks+.cue), lossless]
  • (2010) Ravenna / Debrief (Alt. Rock / Christian Rock / Indie) [FLAC (tracks ...
  • (2001-2003, сборник) VA / Acoustic Café (4xCD) (Classical, New Age) [FLAC ( ...
  • (2009) CHRIS BROWN / Graffiti original (Deluxe Edition) + Bonus tracks (RnB ...
  • (2012) High Contrast / The Agony & The Ecstasy (Drum and Bass) [FLAC (track ...
  • (2006) The Rasmus / Shot (Single) (Alternative Rock) [FLAC (tracks+.cue), l ...
  • (2009) Miley Cyrus / The Time of Our Lives (Pop) [FLAC (tracks+.cue), lossl ...
  • (2011) VA / Танцевальный Рай 27 (Pop) [FLAC (image+.cue), lossless]
  • (2011) Linkin Park / Iridescent (Alternative Rock) [FLAC(image+.cue), lossl ...
  • (2011) Rammstein / Mein Land (Neue Deutsche Harte, Industrial, Tanz-Metal) ...
  • (Дискография, 2008-2010) Suffokate (Deathcore) [FLAC (tracks+.cue), lossles ...
  • (Дискография, 2010-2011) Chelsea Grin (Deathcore) [FLAC (tracks+.cue), loss ...
  • (2011) Сурганова & Оркестр / Увидимся скоро (Rock) [FLAC (image+.cue), loss ...
  • (2011) This Will Destroy You / Tunnel Blanket (Post Rock) [FLAC (tracks+.cu ...
  • (2004) Дельфин / Запись концерта 19.11.04 (Alternative|Experimental) [FLAC ...
  • (2011) Florence & The Machine / Ceremonials (Deluxe Edition) (Indie/Alterna ...
  • (2010) Татьяна Буланова / Романсы (Pop) [FLAC (image+.cue), lossless]
  • (2011) Ink Stained Promises / Relations. (Metalcore, Hardcore) [FLAC (track ...
  • Информация
    Посетители, находящиеся в группе Гости, не могут оставлять комментарии к данной публикации.