вход на сайт

Имя пользователя :
Пароль :

Восстановление пароля Регистрация
(2002) ТАТУ - 200 по встречной (переиздание) (Pop) [lossless FLAC (image +.сue)]
Рейтинг:
(голосов: 1)



[img]{THEME}/images/logopost.png[/img]



Исполнитель: Тату
Альбом: 200 по встречной (переиздание)
Год выпуска: 2002
Жанр: Поп
Формат: FLAC image +.сue
Битрейт: lossless
Продолжительность: 00:50:45

Tрэклист:
[03:30] 1. Клоуны
[03:19] 2. 30 минут
[04:38] 3. Досчитай до ста
[04:10] 4. Зачем я
[04:39] 5. Нас не догонят
[04:20] 6. Я твоя не первая
[03:54] 7. Робот
[03:20] 8. Мальчик-гей
[04:18] 9. Я твой враг
[03:33] 10. Я сошла с ума
[05:57] 11. 30 минут (Moscow Grooves Institute remix)
[05:07] 12. Мальчик-гей (That Black remix)

Отчёт EAC▼
Exact Audio Copy V0.99 prebeta 4 from 23. January 2008

Отчёт EAC об извлечении, выполненном 29. ноября 2008, 22:12

t.A.T.u / 200 по встречной (Переиздание)

Дисковод: ASUS DRW-1814BL Adapter: 3 ID: 0

Режим чтения : Достоверность
Использование точного потока : Да
Отключение кэша аудио : Да
Использование указателей C2 : Нет

Коррекция смещения при чтении : 6
Способность читать области Lead-in и Lead-out : Нет
Заполнение пропущенных сэмплов тишиной : Да
Удаление блоков с тишиной в начале и конце : Нет
При вычислениях CRC использовались нулевые сэмплы : Да
Интерфейс : Установленный внешний ASPI-интерфейс

Выходной формат : Внутренние WAV-операции
Формат сэмплов : 44.100 Гц; 16 бит; стерео

TOC извлечённого CD

Трек | Старт | Длительность | Начальный сектор | Конечный сектор
---------------------------------------------------------------------
1 | 0:00.00 | 3:32.24 | 0 | 15923
2 | 3:32.24 | 3:19.43 | 15924 | 30891
3 | 6:51.67 | 4:38.07 | 30892 | 51748
4 | 11:29.74 | 4:09.44 | 51749 | 70467
5 | 15:39.43 | 4:39.12 | 70468 | 91404
6 | 20:18.55 | 4:19.37 | 91405 | 110866
7 | 24:38.17 | 3:54.08 | 110867 | 128424
8 | 28:32.25 | 3:19.65 | 128425 | 143414
9 | 31:52.15 | 4:18.38 | 143415 | 162802
10 | 36:10.53 | 3:32.42 | 162803 | 178744
11 | 39:43.20 | 5:57.42 | 178745 | 205561
12 | 45:40.62 | 5:05.02 | 205562 | 228438

Характеристики диапазона извлечения и сообщения об ошибках

Выбранный диапазон

Имя файла D:TATU2002.200 по встречной (переиздание)t.A.T.u - 200 по встречной (Переиздание).wav

Пиковый уровень 100.0 %
Качество диапазона 100.0 %
CRC теста 260C75C4
CRC копии 260C75C4
Копирование... OK

Ошибок не произошло

AccurateRip: сводка

Трек 1 точное извлечение (доверие 4) [3DB284DE]
Трек 2 точное извлечение (доверие 4) [FF63CEEE]
Трек 3 точное извлечение (доверие 4) [FCF7CF3B]
Трек 4 точное извлечение (доверие 4) [BB5C6968]
Трек 5 точное извлечение (доверие 5) [AC8912CE]
Трек 6 точное извлечение (доверие 4) [3D75F720]
Трек 7 точное извлечение (доверие 4) [2A0D1ED0]
Трек 8 точное извлечение (доверие 5) [33E4ABAB]
Трек 9 точное извлечение (доверие 4) [1F53E2BB]
Трек 10 точное извлечение (доверие 6) [232A2C0E]
Трек 11 точное извлечение (доверие 4) [E88C88CE]
Трек 12 точное извлечение (доверие 4) [E4791BB3]

Все треки извлечены точно

Конец отчёта


Релиз группы MUSICBOX

Хотите увидеть альбом который так долго ждали, но немогли скачать? Пишите нам в наш Стол заказов
У нас идёт набор желающих в группу. Есть вакантные места. Хотите дать развитие музыки вместе с нами? Тогда вамСюда
Ну и конечно незабывайте оставлять свои комментарии. Приятные комментарии путь к новым релизам!!!


c62275947518d56a3cb62000690c2775e172dbbf(2002) ТАТУ - 200 по встречной (переиздание) (Pop) [lossless FLAC (image +.сue)] (2002) ТАТУ - 200 по встречной (переиздание) (Pop) [lossless FLAC (image +.сue)] " />

Аплоадер: Админ, дата: 14-04-2009, 17:36, торрент скачан: 359 раз

Понравилась раздача? Посмотрите эти:
  • (2012) Григорий Лепс / Полный вперёд (Шансон) [FLAC (image+.cue), Lossless ...
  • (1994) Joy / Grand Collection (EuroDisco) [FLAC (image+.cue) lossless]
  • (2008) Amaral / Gato negro Dragon rojo (Latin rock, alternative rock) [Flac ...
  • (2011) Within Temptation / The Unforgiving (Symphonic Gothic Metal) [FLAC ( ...
  • (1999,2000) Led Zeppelin / The Best Of (2CD) (Hard Rock) [Flac(image+.cue)l ...
  • (Дискография) Chris Isaak (Blues Rock/Southern Rock/Pop Rock) [APE/FLAC (im ...
  • (2011) АлисА / 20.12 (Русский Рок) [WavPack (image+.cue), lossless]
  • (2011) Blues Cousins / KGB Blues (Blues Rock) [FLAC (image+.cue), lossless] ...
  • (2011) ГРОТ / О Пути По Встречной (Rap) [FLAC (tracks+.cue), lossless]
  • (Дискография, 1986 - 1999) Crimson Glory (Progressive Heavy Metal) [FLAC (i ...
  • (2002) t.A.T.u. / 200 по встречной (Pop) [MP3, 320/CBR]
  • (2006) Timati / Black Star (R&B) [(APE+.cue), lossless]
  • (2001, сборник) Технология — Лучшие песни (Поп) [FLAC, lossless]
  • (2007) ЛАСКОВЫЙ МАЙ - Лучшие Песни. Твоя Коллекция (2CD) (Pop) [FLAC (image ...
  • (2009) Земфира / Z-Sides (Rock) [FLAC(image+.cue), lossless ]
  • (2006) Би-2 / Лучшие песни (Rock) [FLAC (image+.cue), lossless]
  • (1986) Dark Angel / Darkness Descends (Thrash Metal) [FLAC (image+.cue), lo ...
  • (1995) Юрий Шатунов / Ты помнишь... (Pop) [FLAC(image+.cue), lossless]
  • (1995) Steve Morse Band / Structural Damage (Instrumental Rock/Blues Rock/J ...
  • (2008) Студия 80 / Придуманный Мир (Pop) [FLAC (image+.cue), lossless]
  • Информация
    Посетители, находящиеся в группе Гости, не могут оставлять комментарии к данной публикации.