вход на сайт

Имя пользователя :
Пароль :

Восстановление пароля Регистрация
(2001, сборник) Технология — Лучшие песни (Поп) [FLAC, lossless]
Рейтинг:
(голосов: 1)



[img]{THEME}/images/logopost.png[/img]



Технология - Лучшие песни

Исполнитель: Технология
Альбом: Лучшие песни
Год выпуска: 2001
Жанр: Поп
Формат: FLAC
Битрейт: lossless
Тип рипа: image+.cue
Продолжительность: 00:73:44

Tрэклист:
▼1 Нажми на кнопку (04:31)
2 Странные танцы (04:54)
3 Там (04:08)
4 Холодный след (04:28)
5 Сигнал (03:25)
6 Полчаса (04:10)
7 Песня обо всем (03:07)
8 Рано или поздно (05:21)
9 Сегодня ночью (04:57)
10 Черный день (04:25)
11 Все, что ты хочешь (03:08)
12 В память о тебе (03:22)
13 Один (04:27)
14 Песни ни о чем (05:50)
15 Шутник (04:28)
16 Первый полет (05:47)
17 Имитатор (03:17)

Отчет EAC

▼Exact Audio Copy V0.99 prebeta 4 from 23. January 2008

Отчёт EAC об извлечении, выполненном 18. ноября 2008, 18:33

Технология / Лучшие песни

Дисковод: ASUS DRW-1814BLT Adapter: 1 ID: 0

Режим чтения : Достоверность
Использование точного потока : Да
Отключение кэша аудио : Да
Использование указателей C2 : Нет

Коррекция смещения при чтении : 6
Способность читать области Lead-in и Lead-out : Нет
Заполнение пропущенных сэмплов тишиной : Да
Удаление блоков с тишиной в начале и конце : Нет
При вычислениях CRC использовались нулевые сэмплы : Да
Интерфейс : Встроенный Win32-интерфейс для Win NT/2000

Выходной формат : Внутренние WAV-операции
Формат сэмплов : 44.100 Гц; 16 бит; стерео

TOC извлечённого CD

Трек | Старт | Длительность | Начальный сектор | Конечный сектор
---------------------------------------------------------------------
1 | 0:00.00 | 4:30.45 | 0 | 20294
2 | 4:30.45 | 4:54.33 | 20295 | 42377
3 | 9:25.03 | 4:07.42 | 42378 | 60944
4 | 13:32.45 | 4:28.06 | 60945 | 81050
5 | 18:00.51 | 3:24.58 | 81051 | 96408
6 | 21:25.34 | 4:10.16 | 96409 | 115174
7 | 25:35.50 | 3:06.42 | 115175 | 129166
8 | 28:42.17 | 5:21.16 | 129167 | 153257
9 | 34:03.33 | 4:56.70 | 153258 | 175527
10 | 39:00.28 | 4:24.61 | 175528 | 195388
11 | 43:25.14 | 3:07.45 | 195389 | 209458
12 | 46:32.59 | 3:21.38 | 209459 | 224571
13 | 49:54.22 | 4:27.25 | 224572 | 244621
14 | 54:21.47 | 5:50.37 | 244622 | 270908
15 | 60:12.09 | 4:28.00 | 270909 | 291008
16 | 64:40.09 | 5:46.62 | 291009 | 317020
17 | 70:26.71 | 3:17.20 | 317021 | 331815

Характеристики диапазона извлечения и сообщения об ошибках

Выбранный диапазон

Имя файла C:Documents and SettingsАдминистраторМои документыТехнология - Лучшие песни.wav

Пиковый уровень 99.4 %
Качество диапазона 99.9 %
CRC копии DCEFE350
Копирование... OK

Ошибок не произошло

AccurateRip: сводка

Трек 1 нет в базе данных
Трек 2 нет в базе данных
Трек 3 нет в базе данных
Трек 4 нет в базе данных
Трек 5 нет в базе данных
Трек 6 нет в базе данных
Трек 7 нет в базе данных
Трек 8 нет в базе данных
Трек 9 нет в базе данных
Трек 10 нет в базе данных
Трек 11 нет в базе данных
Трек 12 нет в базе данных
Трек 13 нет в базе данных
Трек 14 нет в базе данных
Трек 15 нет в базе данных
Трек 16 нет в базе данных
Трек 17 нет в базе данных

Ни одного трека нет в базе AccurateRip

Конец отчёта
Релиз группы MUSICBOX


Хотите увидеть альбом который так долго ждали, но немогли скачать? Пишите нам в наш Стол заказов

У нас идёт набор желающих в группу. Есть вакантные места. Хотите дать развитие музыки вместе с нами? Тогда вамСюда[/url]

Ну и конечно незабывайте оставлять свои комментарии. Приятные комментарии путь к новым релизам!!!

Скачавшие, оставайтесь пожалуйста на раздаче!


d2f21769e088940a0abdfb111205403b4c759e41(2001, сборник) Технология — Лучшие песни (Поп) [FLAC, lossless] (2001, сборник) Технология — Лучшие песни (Поп) [FLAC, lossless] " />

Аплоадер: Админ, дата: 9-04-2009, 09:53, торрент скачан: 359 раз

Понравилась раздача? Посмотрите эти:
  • (2012) Григорий Лепс / Полный вперёд (Шансон) [FLAC (image+.cue), Lossless ...
  • (2009) НОЧНЫЕ СНАЙПЕРЫ — Южный полюс (русский рок, сингл) [FLAC (lossless), ...
  • (2007) СТАС МИХАЙЛОВ - Лучшие песни (Шансон) [APE (image + .cue) lossless]
  • (1994) Joy / Grand Collection (EuroDisco) [FLAC (image+.cue) lossless]
  • (2006) Батырхан Шукенов/ Отан Ана (Pop) [FLAC (image+.cue) lossless]
  • (2010) Смоки МО / Выход Из Темноты (Rap) [APE (image+ cue), lossless]
  • (2008) Ноль / Лучшие песни (Rock) [FLAC (image+.cue), lossless]
  • (2011) Within Temptation / The Unforgiving (Symphonic Gothic Metal) [FLAC ( ...
  • (2011) АлисА / 20.12 (Русский Рок) [WavPack (image+.cue), lossless]
  • (2011) Blues Cousins / KGB Blues (Blues Rock) [FLAC (image+.cue), lossless] ...
  • (2011) АукцЫон / Юла (Rock) [APE (image+.cue), lossless]
  • (Дискография, 1986 - 1999) Crimson Glory (Progressive Heavy Metal) [FLAC (i ...
  • (2002) ТАТУ - 200 по встречной (переиздание) (Pop) [lossless FLAC (image +. ...
  • (2007) ЛАСКОВЫЙ МАЙ - Лучшие Песни. Твоя Коллекция (2CD) (Pop) [FLAC (image ...
  • ( 2001) Воскресение / Звездная коллекция (Rock) [FLAC (image+.cue) lossless ...
  • (2001) Катя Огонёк / Дорожный роман (Шансон) [FLAC (image+.cue)]
  • (2009) Земфира / Z-Sides (Rock) [FLAC(image+.cue), lossless ]
  • (2006) Би-2 / Лучшие песни (Rock) [FLAC (image+.cue), lossless]
  • (2001) Лучшие звуки природы (Звуки природы) [FLAC (image+.cue), lossless]
  • (1995) Юрий Шатунов / Ты помнишь... (Pop) [FLAC(image+.cue), lossless]
  • (2010) Александр Серов / Лучшие песни (серия «НОВАЯ КОЛЛЕКЦИЯ») (Pop) [Flac ...
  • (1995) Steve Morse Band / Structural Damage (Instrumental Rock/Blues Rock/J ...
  • (2004) Ex-Сектор Газа / Огненный рай (Punk-Rock) [FLAC (image+.cue), lossle ...
  • (2008) Студия 80 / Придуманный Мир (Pop) [FLAC (image+.cue), lossless]
  • (2012) Денис Майданов / Лучшие песни (Серия "Музыка на почте") (Шансон) [FL ...
  • Информация
    Посетители, находящиеся в группе Гости, не могут оставлять комментарии к данной публикации.