вход на сайт

Имя пользователя :
Пароль :

Восстановление пароля Регистрация
(2012, Сборник) VA / Top 20. Зарубежный. 8 часть (Pop) [FLAC (image+.cue), lossless]
Рейтинг:
(голосов: 1)



[img]{THEME}/images/logopost.png[/img]



Сборник
Исполнитель: Various Artists
Название сборника: Top 20. Зарубежный. 8 часть
Год выпуска: 2012
Жанр: Pop
Страна (Издатель, Каталожный номер): Беларусь (Вигма Рекордс, 3398)
Аудиокодек: FLAC (*.flac)
Тип рипа: image+.cue
Битрейт: lossless
Log-файлы: Присутствуют.
Наличие сканов в содержимом раздачи: Да. (JPG, 600DPI, 31,1MB)
Продолжительность: 01:16:30



Треклист:
01. Flo Rida - Whistle (03:47)
02. Maroon 5 - One More Night (03:41)
03. Pitbull - Back In Time (03:27)
04. Alex Ferrari - Bara Bara Bere Bere ( DJ Kostas & DJ Yonce Remix) (04:57)
05. Carly Rae Jepsen - Call Me Maybe (03:15)
06. Aura Dione - Friends (03:45)
07. Psy - Gangnam Style (03:41)
08. Gotye feat. Kimbra - Somebody That I Used To Know (Shameboy vs Distrakt Remix) (04:05)
09. Loreen - Euphoria (03:03)
10. Oceana - Endless Summer (Euro 2012) (03:26)
11. P!nk - Blow Me (One Last Kiss) (04:17)
12. George Michael - White Light (04:37)
13. Madonna - Masterpiece (04:00)
14. Will.I.Am feat. Eva Simons - This Is Love (04:44)
15. Gustavo Lima - Balada Boa (03:01)
16. Playmen - Fallin (04:06)
17. Basto! & Yves V - Cloud Breaker (DFM Mix) (03:20)
18. Junior Caldera & Far East Movement - Lights Out (03:12)
19. Fly Project - Musica (Keem Project & DJ Godunov Club Mix) (03:41)
20. Alex Clare - Too Close (04:16)

Лог создания рипа (EAC log) ▼TextExact Audio Copy V1.0 beta 3 from 29. August 2011

EAC extraction logfile from 18. December 2012, 14:51

Various / Top 20. Зарубежный. 8 часть

Used drive : _NEC DVD_RW ND-3550A Adapter: 0 ID: 0

Read mode : Secure
Utilize accurate stream : Yes
Defeat audio cache : Yes
Make use of C2 pointers : No

Read offset correction : 48
Overread into Lead-In and Lead-Out : No
Fill up missing offset samples with silence : Yes
Delete leading and trailing silent blocks : No
Null samples used in CRC calculations : Yes
Used interface : Native Win32 interface for Win NT & 2000

Used output format : User Defined Encoder
Selected bitrate : 128 kBit/s
Quality : High
Add ID3 tag : No
Command line compressor : C:Program FilesExact Audio CopyFlacflac.exe
Additional command line options : -V -8 -T "Date=%year%" -T "Genre=%genre%" %source%

TOC of the extracted CD

Track | Start | Length | Start sector | End sector
---------------------------------------------------------
1 | 0:00.00 | 3:47.37 | 0 | 17061
2 | 3:47.37 | 3:41.41 | 17062 | 33677
3 | 7:29.03 | 3:27.55 | 33678 | 49257
4 | 10:56.58 | 4:57.33 | 49258 | 71565
5 | 15:54.16 | 3:15.36 | 71566 | 86226
6 | 19:09.52 | 3:45.20 | 86227 | 103121
7 | 22:54.72 | 3:41.14 | 103122 |&nbs
9e5d4a7a32b3d07dfebcd1ac04ea919e326a7c59(2012, Сборник) VA / Top 20. Зарубежный. 8 часть (Pop) [FLAC (image+.cue), lossless] (2012, Сборник) VA / Top 20. Зарубежный. 8 часть (Pop) [FLAC (image+.cue), lossless] " />

Аплоадер: Админ, дата: 21-12-2012, 17:58, торрент скачан: 359 раз

Понравилась раздача? Посмотрите эти:
  • (1996) George Michael / Older (1st Press Japan) (Electronic, Pop/Rock) [FLA ...
  • (2013) Buddy Guy / Rhythm & Blues (2CD) (Blues) [FLAC (image+.cue), Lossles ...
  • (2013) The Hamburg Blues Band / Friends For A LIVEtime (Blues Rock, Rock) [ ...
  • (2013) Linkin Park / Recharged (Electronic Rock / Electro House) [FLAC (ima ...
  • (2013) Paul McCartney / New (Deluxe Edition) (Rock) [FLAC (image,+.cue), lo ...
  • (2012) Matt Bianco / Hideaway (Japan CD) (Smooth Jazz, Fusion, Latin-Pop) [ ...
  • (2012) Britney Spears / Oops...I Did It Again - The Best Of Britney Spears ...
  • (2012) Marconi Union / Different Colours (Post Rock, Downtempo, Ambient) [F ...
  • (2012) Christina Aguilera / The Best (Unofficial) (Pop) [FLAC (image+.cue), ...
  • (2012, Сборник) VA / The Best Of Lounge 4 (Lounge, Chillout, Jazzy, Downtem ...
  • (2012, Сборник) VA / Saxophone Golden Best (Jazz, Smooth Jazz) [FLAC (track ...
  • (2008, Сборник) VA / Relax Piano - Yesterday - Trai Tim Mua Thu - Vol.7 (Ne ...
  • (2012) George Michael / White Light (Pop, Electronic) [FLAC (image+.cue), l ...
  • (2011) Alex Clare / The Lateness of the Hour (Soul, Pop, Dubstep) [FLAC (tr ...
  • (2012) Sally Night / Love For Sale (Vocal Jazz) [FLAC (tracks+.cue), lossle ...
  • (2012, Сборник) VA / Now Thats What I Call Music! 83 (2 CD) (Pop, Dance) [F ...
  • (2008-2012, Сборник) VA / The Twilight Saga (5 CD) (Soundtrack) [FLAC (trac ...
  • (2011, Сборник) VA / Merry Christmas (4 CD) (Pop, Retro) [FLAC (image+.cue) ...
  • (2012, Сборник) VA / Новогодняя тридцатка 2013 (Шансон) [FLAC (image+.cue), ...
  • (2012) Netsky / 2 (Drum & Bass, Dubstep) [FLAC (tracks+.cue), lossless]
  • (2012) Madonna / Superstar (Pop) [FLAC (image+.cue), lossless]
  • (2011) Ленинград / Хна (Rock) [FLAC (tracks+.cue), lossless]
  • (2011) Volumes / Via (Progressive Metalcore/Math Metal) [FLAC (image+.cue), ...
  • (2012) Fox / 2012 (Melodic Hard Rock) [FLAC (image +.cue), lossless]
  • (2012) Soulfly / Enslaved [Deluxe Edition] (Groove Metal/Thrash Metal) [FLA ...
  • Информация
    Посетители, находящиеся в группе Гости, не могут оставлять комментарии к данной публикации.