вход на сайт

Имя пользователя :
Пароль :

Восстановление пароля Регистрация
(2012) Dan Balan / All The Hits (Orange Exclusiv) (Pop, Dance) [FLAC (image+.cue), lossless]
Рейтинг:
(голосов: 1)



[img]{THEME}/images/logopost.png[/img]



Исполнитель: Dan Balan
Страна: Молдавия, США
Альбом: All The Hits
Вариант издания: Orange Exclusiv
Тип альбома: Compilation
Год выпуска: 2012
Жанр: Pop, Dance
Страна (Издатель): Молдавия (Loop Productions)
Аудиокодек: FLAC (*.flac)
Тип рипа: image+.cue
Битрейт: lossless
Log-файлы: Присутствуют.
Наличие сканов в содержимом раздачи: Да. (JPG, 600DPI, 9,53MB)
Продолжительность:

Описание: Dan Balan (Дан Михай Балан, молд. Dan Mihai Bălan; род. 6 февраля 1979 года, Кишинёв, Молдавия) — молдавский музыкант, автор песен и продюсер, бывший солист группы O-Zone, в данный момент проживает в Нью-Йорке, владеет молдавским, русским и английским языками.


Wikipedia| YouTube | Facebook | Official page



Треклист:
01. Freedom (03:34)
02. Chica Bomb (03:30)
03. Лишь До Утра (03:38)
04. Justify Sex (03:32)
05. Люби (03:55)
06. Despre Tine Cant (Part 2) (04:04)
07. Crazy Loop (Mm-Ma-Ma) (03:19)
08. Не Любя (03:16)
09. Лепестками Слез Feat. Вера Брежнева (03:30)
10. Johanna (Shut Up!) (03:21)
11. Sugar Tunes (03:07)
12. Chica Bomb (Chew Fu Hurt Locker Remix) (03:28)
13. Люби (DJ Sergey Remix) (03:30)
14. Freedom (Club Mix) (03:31)
15. Лишь До Утра (Dance Version) (03:22)

Лог создания рипа (EAC log) ▼TextExact Audio Copy V1.0 beta 3 from 29. August 2011

EAC extraction logfile from 7. December 2012, 20:12

Dan Balan / All The Hits

Used drive : Optiarc DVD RW AD-5280S Adapter: 2 ID: 1

Read mode : Secure
Utilize accurate stream : Yes
Defeat audio cache : Yes
Make use of C2 pointers : No

Read offset correction : 48
Overread into Lead-In and Lead-Out : No
Fill up missing offset samples with silence : Yes
Delete leading and trailing silent blocks : No
Null samples used in CRC calculations : Yes
Used interface : Installed external ASPI interface

Used output format : Internal WAV Routines
Sample format : 44.100 Hz; 16 Bit; Stereo

TOC of the extracted CD

Track | Start | Length | Start sector | End sector
---------------------------------------------------------
1 | 0:00.00 | 3:34.62 | 0 | 16111
2 | 3:34.62 | 3:30.59 | 16112 | 31920
3 | 7:05.46 | 3:38.31 | 31921 | 48301
4 | 10:44.02 | 3:32.41 | 48302 | 64242
5 | 14:16.43 | 3:55.00 | 64243 | 81867
6 | 18:11.43 | 4:04.54 | 81868 | 100221
7 | 22:16.22 | 3:19.38 | 100222 | 115184
8 | 25:35.60 | 3:16.22 | 115185 | 129906
9 | 28:52.07 | 3:30.52 | 129907 | 145708
10 | 32:22.59 | 3:21.34 | 145709 | 160817
11 | 35:44.18 | 3:07.06 | 160818 | 174848
12 | 38:51.24 | 3:28.18 | 174849 |  
71a17e49e2009380c9ff81e6ccb7c5df7e704aad(2012) Dan Balan / All The Hits (Orange Exclusiv) (Pop, Dance) [FLAC (image+.cue), lossless] (2012) Dan Balan / All The Hits (Orange Exclusiv) (Pop, Dance) [FLAC (image+.cue), lossless] " />

Аплоадер: Админ, дата: 11-12-2012, 10:44, торрент скачан: 359 раз

Понравилась раздача? Посмотрите эти:
  • (2013) Мумий Тролль / SOS Матросу - 2013, (Rock) [FLAC (image+.cue), lossle ...
  • (2008) Ella Fitzgerald & Louis Armstrong / Autumn In New York (Vocal Jazz) ...
  • (2013) Dan Balan / The Best Songs (Pop, Dance) [MP3, 320 / CBR]
  • (2013, Сборник) VA / Новые и любимые хиты (Pop) [FLAC (image+.cue), lossles ...
  • (2012) Мачете / Мачете (Rock) [FLAC (image+.cue), lossless]
  • (2009) Dan Balan / Crazy Loop Mix (Dance, Pop) [MP3 320/CBR]
  • (2010) Dan Balan / Chica Bomb (Dance, Pop) [MP3,320 kbps/CBR ]
  • (2010) Ассаи / Лифт (Rap) [FLAC(image+.cue), lossless]
  • (2009) Dan Balan / Crazy Loop Mix (Pop) [Losslless,(tracks+.cue)]
  • (2008) Юрий Наумов / Рок как будто Блюз (Blues) [FLAC (Image+.cue), lossles ...
  • (2009) D-Man 55 / 7.62 Б-30 (Rap) [FLAC (image+.cue) lossless]
  • (1996) DJ Dado / The Album (Electronic, Dream trance) [FLAC (image+.сue), l ...
  • (2010) 2Pac / Greatest Hits (Rap & Hip Hop) [APE (image+.cue), lossless]
  • (2012) Сергей Васюта и Сладкий Сон / На белом покрывале января... (Pop) [Fl ...
  • (2012) Bryan Adams / 1983-Cuts Like a Knife (Rock) [FLAC (image+.cue), loss ...
  • (2011) Sam Levine / Smooth Sax Romance (Smooth Jazz) [FLAC (image+.cue), lo ...
  • (2004) Игорь Малинин / От Штирлица до Путина (Pop) [FLAC (image+.cue), los ...
  • (2012, сборник) VA | Горячая 20. Осень-Зима 2012-13 (Pop) [FLAC (image+.cue ...
  • (2012) Jim Brickman / Love (2010) (Piano, Instrumental, New Age) [FLAC (ima ...
  • (2012) Dan Balan / Freedom. Part 1 (Pop, Dance) [FLAC (image+.cue), lossles ...
  • (1993) Крис Кельми / Greatest Hits (Pop-Rock) [FLAC (image+.cue), lossless] ...
  • (2011) Yanni / Truth Of Touch (New Age) [FLAC (image+ .cue),lossless]
  • (2011) Стас Михайлов / Только ты (Шансон) [Flac(image+.cue)Lossless]
  • (2011) Metallica / Beyond Magnetic (Thrash Metal) [FLAC (image+.cue), lossl ...
  • (2012) Muse / The 2nd Law (Alternative Rock, Progressive Rock) [FLAC (image ...
  • Информация
    Посетители, находящиеся в группе Гости, не могут оставлять комментарии к данной публикации.