вход на сайт

Имя пользователя :
Пароль :

Восстановление пароля Регистрация
(2012) Dan Balan / Freedom. Part 1 (Pop, Dance) [FLAC (image+.cue), lossless]
Рейтинг:
(голосов: 1)



[img]{THEME}/images/logopost.png[/img]



Исполнитель: Dan Balan
Альбом: Freedom. Part 1
Тип альбом: Студийный
Год выпуска:2012
Жанр:Pop, Dance
Страна (Издатель, Каталожный номер):Украина(Moon Records, 4820011554028)
Аудиокодек: FLAC (*.flac)
Тип рипа: image+.cue
Битрейт: lossless
Лог файлы: присутствуют
Наличие сканов в содержимом раздачи: Есть
Продолжительность: 01:01:11

Wikipedia | Official page | Last.fm | Facebook

Об исполнителе: Dan Balan - молдавский музыкант, автор песен и продюсер, бывший солист группы O-Zone, в данный момент проживает в Нью-Йорке, владеет молдавским, русским и английским языками.

Tреклист:
01. Chica Bomb (3:28)
02. Freedom (3:32)
03. 24th Letter (4:22)
04. Lonely (3:11)
05. Лишь до утра (3:36)
06. Justify Sex (3:30)
07. Лепестками слез (feat Вера Брежнева) (3:28)
08. Crazy Loop (Mm-ma-ma) (3:17)
09. Люби (3:52)
10. Cry Cry (4:10)
11. Take me higher (3:35)
12. Despre Tine Cant (Part 2) (4:02)
13. Не любя (3:14)
14. Chica Bomb (Chew Fu Hurt Locker Remix) (3:26)
15. Лишь до утра (dance version) (3:22)
16. Freedom (club mix) (3:29)
17. Люби (DJ Sergey Fisun remix) (3:28)

Лог создания рипа ▼Text
Exact Audio Copy V1.0 beta 1 from 15. November 2010

Отчёт EAC об извлечении, выполненном 7. декабря 2012, 15:42

Dan Balan / Freedom. Part 1

Дисковод: ASUS DRW-24B3ST Adapter: 0 ID: 1

Режим чтения : Достоверность
Использование точного потока : Да
Отключение кэша аудио : Да
Использование указателей C2 : Нет

Коррекция смещения при чтении : 6
Способность читать области Lead-in и Lead-out : Нет
Заполнение пропущенных сэмплов тишиной : Да
Удаление блоков с тишиной в начале и конце : Нет
При вычислениях CRC использовались нулевые сэмплы : Да
Интерфейс : Встроенный Win32-интерфейс для Win NT/2000

Выходной формат : Пользовательский кодировщик
Выбранный битрейт : 896 kBit/s
Качество : Высокий
Добавление ID3-тэга : Нет
Утилита сжатия : C:Program FilesFLACflac.exe
Дополнительные параметры : -T "DATE=%y" -T "GENRE=%m" -8 -V %s


TOC извлечённого CD

Трек | Старт | Длительность | Начальный сектор | Конечный сектор
---------------------------------------------------------------------
1 | 0:00.00 | 3:28.59 | 0 | 15658
2 | 3:28.59 | 3:32.63 | 15659 | 31621
3 | 7:01.47 | 4:22.56 | 31622 | 51327
4 | 11:24.28 | 3:11.11 | 51328 | 65663
5 | 14:35.39 | 3:36.40 | 65664 | 81903
6 | 18:12.04 | 3:30.48 | 81904 | 
93dc1cc26159fcc05ec40577f330b62b5ee82853(2012) Dan Balan / Freedom. Part 1 (Pop, Dance) [FLAC (image+.cue), lossless] (2012) Dan Balan / Freedom. Part 1 (Pop, Dance) [FLAC (image+.cue), lossless] " />

Аплоадер: Админ, дата: 8-12-2012, 13:15, торрент скачан: 359 раз

Понравилась раздача? Посмотрите эти:
  • (1993) Coverdale & Page / Coverdale & Page (EMI Holland)(Hard Rock) [FLAC ( ...
  • (2000) a-ha / Minor Earth | Major Sky (Alternative Rock, Synth-pop ) [FLAC ...
  • (2013) Al Di Meola / All Your Life (Fusion) [FLAC (image+.cue), lossless]
  • (2013) Dan Balan / The Best Songs (Pop, Dance) [MP3, 320 / CBR]
  • (2013) МакSим (Максим) / Другая реальность (Рор) [FLAC (image+.cue), lossle ...
  • (2013) Pinnick Gales Pridgen / Pinnick Gales Pridgen (Hard Rock, Heavy Blue ...
  • (2013) Krokus / Dirty Dynamite (Hard Rock) [FLAC (image+.cue), lossless]
  • (2012) Рем Дигга / Черника (Rap) [FLAC (tracks+.cue), lossless]
  • (2010) Schiller / Breathless (Electronic) [FLAC (image+.cue), lossless]
  • (2010) БИ-2 / О чём говорят мужчины (Pop-Rock) [FLAC (image + .cue), lossle ...
  • (1997) Jazz Cafe / Simple Pleasures (Jazz, instrumental) [FLAC (image+.сue ...
  • (2012) The Blues Overdrive / The Blues Overdrive (Blues-Rock) [FLAC (image+ ...
  • (Дискография, 2006-2012) Shym (French Pop, Dance, R&B, Soul) [FLAC (image+. ...
  • (2012) KREC / Молча проще (Rap) [FLAC (tracks+.cue), lossless]
  • (2012) Dan Balan / All The Hits (Orange Exclusiv) (Pop, Dance) [FLAC (image ...
  • (2011) Ассаи / ОМ (Rap) [FLAC (tracks+.cue), lossless]
  • (2012) Strange Contact / Retro (Synthpop) [FLAC (image+.сue), lossless]
  • (2008) Nirvana / The Best Of (Grunge, Alternative) [FLAC (image+.сue), loss ...
  • (2012) Walter Trout / Blues For The Modern Daze (Blues, Blues Rock) [FLAC ( ...
  • (2012, Сборник) VA / Горячая 20. Весна-Лето 2012 (UA - версия) (Pop) [FLAC ...
  • Информация
    Посетители, находящиеся в группе Гости, не могут оставлять комментарии к данной публикации.