вход на сайт

Имя пользователя :
Пароль :

Восстановление пароля Регистрация
(2012) Lucy Durack / Lucy Durack (Pop, Soul, Contemporary Vocal) [FLAC (tracks+.cue), lossless]
Рейтинг:
(голосов: 1)



[img]{THEME}/images/logopost.png[/img]



Исполнитель: Lucy Durack
Страна: Австралия
Альбом: Lucy Durack
Тип альбома: Студийный
Год выпуска: 2012
Жанр: Pop, Soul, Contemporary Vocal
Страна (Издатель, Каталожный номер): Австралия (ABC Music, 3713517)
Аудиокодек: FLAC (*.flac)
Тип рипа: tracks+.cue
Битрейт: lossless
Log-файлы: Присутствуют.
Наличие сканов в содержимом раздачи: Нет.
Продолжительность: 00:39:23


Об исполнителе: Lucy Durack (born 17 November 1982) is an Australian musical theatre performer recognised for playing Glinda in the Australian production of Wicked, and Elle Woods in the Australian production of Legally Blonde: The Musical.


Wikipedia| YouTube | Facebook | Official page

Tреклист:
01. Bye Bye Blackbird (02:22)
02. You Dont Know Me (03:37)
03. Stop Searching For Love (03:21)
04. Heading In The Right Direction (03:31)
05. Two Feet (03:09)
06. Dancing In The Street (03:04)
07. Higher & Higher (03:01)
08. Circus Song (03:28)
09. At Last (04:46)
10. God Only Knows (02:39)
11. Dream A Little Dream Of Me (03:00)
12. Zip-A-Dee-Doo-Dah (03:19)


Лог создания рипа (EAC log) ▼TextExact Audio Copy V1.0 beta 3 from 29. August 2011

EAC extraction logfile from 6. November 2012, 13:20

Lucy Durack / Lucy Durack

Used drive : ATAPI iHAS324 Y Adapter: 3 ID: 0

Read mode : Secure
Utilize accurate stream : Yes
Defeat audio cache : Yes
Make use of C2 pointers : No

Read offset correction : 48
Overread into Lead-In and Lead-Out : No
Fill up missing offset samples with silence : Yes
Delete leading and trailing silent blocks : No
Null samples used in CRC calculations : Yes
Used interface : Native Win32 interface for Win NT & 2000
Gap handling : Appended to previous track

Used output format : User Defined Encoder
Selected bitrate : 1024 kBit/s
Quality : High
Add ID3 tag : No
Command line compressor : C:Program Files (x86)Exact Audio CopyFLACFLAC.EXE
Additional command line options : -8 -V -T "ARTIST=%artist%" -T "TITLE=%title%" -T "ALBUM=%albumtitle%" -T "DATE=%year%" -T "TRACKNUMBER=%tracknr%" -T "GENRE=%genre%" -T "PERFORMER=%albuminterpret%" -T "COMPOSER=%composer%" %haslyrics%--tag-from-file=LYRICS="%lyricsfile%"%haslyrics% -T "ALBUMARTIST=%albumartist%" -T "DISCNUMBER=%cdnumber%" -T "TOTALDISCS=%totalcds%" -T "TOTALTRACKS=%numtracks%" -T "COMMENT=%comment%" %source% -o %dest%

TOC of the extracted CD

Track | Start | Length | Start sector | End sector
---------------------------------------------------------
1 | 0:00.00 | 2:22.63 | 0 | 10712
2 | 2:22.63 | 3:37.39 | 10713 | 27026
3 | 6:00.27 | 3:21.16 | 27027 | 42117
4 | 9:21.43 | 3:31.04 | &nbs
ce83b0a30c8b055ac8cdbd56c2d7cecf238ba09e(2012) Lucy Durack / Lucy Durack (Pop, Soul, Contemporary Vocal) [FLAC (tracks+.cue), lossless] (2012) Lucy Durack / Lucy Durack (Pop, Soul, Contemporary Vocal) [FLAC (tracks+.cue), lossless] " />

Аплоадер: Админ, дата: 27-12-2012, 20:19, торрент скачан: 359 раз

Понравилась раздача? Посмотрите эти:
  • (2013) Buddy Guy / Rhythm & Blues (2CD) (Blues) [FLAC (image+.cue), Lossles ...
  • (2013) Paul McCartney / New (Deluxe Edition) (Rock) [FLAC (image,+.cue), lo ...
  • (2012) Lazlo / Lazlo (Electro Swing, Nu Jazz, Electronic) [FLAC (tracks+.cu ...
  • (2010) Clean Tears / Innerve (Techno, Vocaloid) [FLAC (tracks+.cue), lossle ...
  • (2011) Disturbed / The Lost Children (Alternative Metal) [FLAC (tracks+.cue ...
  • (2012) Katie Melua / Secret Symphony (Jazz Pop, Vocal Jazz) [FLAC (tracks+. ...
  • (2012) Paul Van Dyk / Evolution (Progressive House, Trance) [FLAC (tracks+. ...
  • (2012) Marconi Union / Different Colours (Post Rock, Downtempo, Ambient) [F ...
  • (2008, Сборник) VA / Relax Piano - Yesterday - Trai Tim Mua Thu - Vol.7 (Ne ...
  • (2012) Tomandandy / Resident Evil: Retribution (Score, Soundtrack)[FLAC (tr ...
  • (2012) Sally Night / Love For Sale (Vocal Jazz) [FLAC (tracks+.cue), lossle ...
  • (1996) The Rasmus / Peep (Finnish Version) (Alternative Rock) [FLAC (tracks ...
  • (2012) Usher / Looking 4 Myself (Deluxe Version) (R&B, Soul) [FLAC (tracks+ ...
  • (2011) Mistabishi / Trip (Drum & Bass, Breakbeat) [FLAC (tracks+.cue), loss ...
  • (2012) Buckethead / Electric Sea (Experimental/Acoustic/Ambient/Rock) [FLAC ...
  • (2012) Les Friction / Les Friction (Alt. Rock/Neo-Classical/Orchestral) [FL ...
  • (2011) SeeS / The enD (Progressive/Math Metal) [FLAC (tracks+.cue), lossles ...
  • (2012) Our Lady Peace / Curve (Alternative/Rock) [FLAC (tracks+.cue), lossl ...
  • (2012) Nine Lashes / World We View (Alt.Rock/Alt.Metal/Christian) [FLAC (tr ...
  • (2012) For Today / Immortal (Metalcore, Hardcore, Christian) [FLAC (tracks+ ...
  • Информация
    Посетители, находящиеся в группе Гости, не могут оставлять комментарии к данной публикации.