вход на сайт

Имя пользователя :
Пароль :

Восстановление пароля Регистрация
(2011, Сборник) VA / Merry Christmas (4 CD) (Pop, Retro) [FLAC (image+.cue), lossless]
Рейтинг:
(голосов: 1)



[img]{THEME}/images/logopost.png[/img]





Сборник
Исполнитель:Various Artists
Название сборника:Merry Christmas (4 CD)
Год выпуска:2011
Жанр:Pop, Retro
Страна (Издатель, Каталожный номер): Greece, EMI Music / ПРЗ CD05943
Аудиокодек: FLAC (*.flac)
Тип рипа: image+.cue
Битрейт: lossless
Лог файл: присутствуют
Наличие сканов в содержимом раздачи: Есть
Продолжительность: 03:07:17


СD 1 (FLAC (image+.cue)) ▼
Продолжительность: 00:41:20

Tреклист:
01. Bing Crosby - White Christmas (3:05)
02. Mel Torme - The Christmas song (2:44)
03. Ella Fitzgerald & Frank Devol Orchestra - Rudolph the red nosed reindeer (2:52)
04. Bill Evans - Santa Claus is coming to town (4:25)
05. Connie Francis - Winter wonderland (2:41)
06. Jimmy Smith - Jingle bells (3:12)
07. The Jackson 5 - Little drummer boy (3:17)
08. Bing Crosby & The Andrews Sisters - Twelve days of Christmas (3:21)
09. Ramsey Lewis Trio - Here comes Santa Claus (2:40)
10. Oscar Peterson - A child is born (2:35)
11. Peggy Lee feat. Jud Conlons Rhythmaires - Its Christmas time again (2:58)
12. Billy Eckstine - Christmas eve (3:03)
13. Connie Francis - Babys first Christmas (2:26)
14. Loretta Lynn - Country Christmas (3:06)

Лог создания рипа ▼Text
Exact Audio Copy V1.0 beta 3 from 29. August 2011

EAC extraction logfile from 24. December 2011, 14:08

Various / Merry Christmas CD1

Used drive : HL-DT-STDVDRAM GH10N Adapter: 1 ID: 1

Read mode : Secure
Utilize accurate stream : Yes
Defeat audio cache : Yes
Make use of C2 pointers : No

Read offset correction : 667
Overread into Lead-In and Lead-Out : No
Fill up missing offset samples with silence : Yes
Delete leading and trailing silent blocks : No
Null samples used in CRC calculations : Yes
Used interface : Native Win32 interface for Win NT & 2000

Used output format : User Defined Encoder
Selected bitrate : 1024 kBit/s
Quality : High
Add ID3 tag : Yes
Command line compressor : C:Program FilesExact Audio Copy NewFlacflac.exe
Additional command line options : -V -5 -T "artist=%artist%" -T "title=%title%" -T "album=%albumtitle%" -T "tracknumber=%tracknr2%" -T "genre=%genre%" -5 %source%


TOC of the extracted CD

Track | Start | Length | Start sector | End sector
---------------------------------------------------------
1 | 0:00.00 | 3:04.48 | 0 | 13847
2 | 3:04.48 | 2:43.48 | 13848 | 26120
3 | 5:48.21 | 2:51.48 | 26121 | 38993
4 | 8:39.69 | 4:24.48 | 38994 | 58841
5 | 13:04.42 | 2:40.48 | 58842 | 70889
6 | 15:45.15 | 3:11.48 | 70890 | 85262
&nbs
4639d825a6b801f12fdcf4a2c1b6c87fa9e1baf6(2011, Сборник) VA / Merry Christmas (4 CD) (Pop, Retro) [FLAC (image+.cue), lossless] (2011, Сборник) VA / Merry Christmas (4 CD) (Pop, Retro) [FLAC (image+.cue), lossless] " />

Аплоадер: Админ, дата: 14-12-2012, 15:21, торрент скачан: 359 раз

Понравилась раздача? Посмотрите эти:
  • (1993) VA / GRP Christmas Collection, Vol. III (Fusion, Christmas) [FLAC (t ...
  • (1996) George Michael / Older (1st Press Japan) (Electronic, Pop/Rock) [FLA ...
  • (2013) Buddy Guy / Rhythm & Blues (2CD) (Blues) [FLAC (image+.cue), Lossles ...
  • (2013) The Hamburg Blues Band / Friends For A LIVEtime (Blues Rock, Rock) [ ...
  • (2013) Leslie West / Still Climbing (Rock, Hard Rock, Blues Rock) [FLAC (im ...
  • (2013) Paul McCartney / New (Deluxe Edition) (Rock) [FLAC (image,+.cue), lo ...
  • (2013) Govt Mule / Shout! (2CD) (Blues Rock) [FLAC (image+.cue), Lossless]
  • (2013) Alizee / 5 (French Pop) [FLAC (image+.cue), lossless]
  • (2009, сборник) VA / Christmas Chill Out Lounge (Chillout) [FLAC (image + . ...
  • (2011) The Prodigy / Worlds On Fire (Big Beat, Rave) [FLAC (image+.cue), lo ...
  • (2011) Michael Bublé / Christmas (Limited Edition) (Vocal Jazz, Christmas) ...
  • (2010, 5CDs Box-set) Various Artists / 100 Hits - Christmas Legends (Big Ba ...
  • (Дискография, 1988-2011) Kingdom Come (Hard&Heavy,Glam Metal) [FLAC (image+ ...
  • (2011) B.B. King / Icon (Blues) [FLAC (tracks+.cue), lossless]
  • (2012) Christina Aguilera / The Best (Unofficial) (Pop) [FLAC (image+.cue), ...
  • (2012, Сборник) VA / Saxophone Golden Best (Jazz, Smooth Jazz) [FLAC (track ...
  • (2008, Сборник) VA / Relax Piano - Yesterday - Trai Tim Mua Thu - Vol.7 (Ne ...
  • (2012) Rod Stewart / Merry Christmas, Baby (Deluxe Edition) (Jazz) [FLAC (i ...
  • (2012, Сборник) VA / Новогодняя тридцатка 2013 (Шансон) [FLAC (image+.cue), ...
  • (2011) Mistabishi / Trip (Drum & Bass, Breakbeat) [FLAC (tracks+.cue), loss ...
  • (2011) SeeS / The enD (Progressive/Math Metal) [FLAC (tracks+.cue), lossles ...
  • (2012) Anneke van Giersbergen / Everything Is Changing (Alternative Rock/Fe ...
  • (2011) Volumes / Via (Progressive Metalcore/Math Metal) [FLAC (image+.cue), ...
  • (2012) Soulfly / Enslaved [Deluxe Edition] (Groove Metal/Thrash Metal) [FLA ...
  • (2011) Phinehas / Thegodmachine (Metalcore) [FLAC (tracks+.cue), lossless]
  • Информация
    Посетители, находящиеся в группе Гости, не могут оставлять комментарии к данной публикации.