вход на сайт

Имя пользователя :
Пароль :

Восстановление пароля Регистрация
(2012, сборник) VA | Горячая 20. Осень-Зима 2012-13 (Pop) [FLAC (image+.cue), lossless]
Рейтинг:
(голосов: 1)



[img]{THEME}/images/logopost.png[/img]




Исполнитель:VA
Страна: Россия
Альбом:Горячая 20. Осень-Зима 2012-13
Год выпуска:2012
Жанр:Pop
Год первоначального издания альбома: 2012
Страна (Издатель, Каталожный номер): Россия (МОНОЛИТ, МТ 001091-148-1)
Аудиокодек: FLAC (*.flac))
Тип рипа: image+.cue
Битрейт: lossless
Продолжительность: 01:10:10

Tреклист:
01. Иракли - Осень (ремикс) - 03:10
02. Анна Седюкова - Что я наделала - 03:21
03. Ёлка - Хочу - 03:26
04. Леонид Агутин & Tomas Nevergreen - Ай яй яй - 03:29
05. Новые Самоцветы - Помнишь Модерн Токинг - 03:42
06. Анжелика Агурбаш - До звезды - 03:05
07. USB & Сергей Жуков - Скажи, зачем - 03:49
08. Юлия Савичева feat. DJ Feel - Я с тобой - 03:39
09. Тимур Родригез - Я верю в твою любовь - 02:50
10. МакSим - Это же я - 03:03
11. Герои - Под запретом - 02:49
12. All давай!!! - Это любовь - 03:23
13. Тамерлан & Алёна Омаргалиева - Может это ты - 02:53
14. Belka - Прости - 03:01
15. Настя Кудри - Оригами - 03:26
16. Вера Брежнева - Бессонница - 03:41
17. Lайт - Игра (Я не люблю тебя) - 03:31
18. Катя Старикова - Будь со мной - 02:58
19. Дима Билан - Лови мои цветные сны - 03:29
20. Serebro - Gun - 03:56
21. DJ Chris Parker - Welcome To Mars (бонус) - 03:20

В формате MP3

Лог создания рипа ▼TextExact Audio Copy V0.99 prebeta 5 from 4. May 2009

EAC extraction logfile from 5. December 2012, 0:22

Various / Горячая 20. Осень-Зима 2012/13

Used drive : PIONEER DVD-RW DVR-212 Adapter: 8 ID: 0

Read mode : Secure
Utilize accurate stream : Yes
Defeat audio cache : Yes
Make use of C2 pointers : No

Read offset correction : 48
Overread into Lead-In and Lead-Out : No
Fill up missing offset samples with silence : Yes
Delete leading and trailing silent blocks : No
Null samples used in CRC calculations : Yes
Used interface : Installed external ASPI interface

Used output format : Internal WAV Routines
Sample format : 44.100 Hz; 16 Bit; Stereo

TOC of the extracted CD

Track | Start | Length | Start sector | End sector
---------------------------------------------------------
1 | 0:00.00 | 3:10.03 | 0 | 14252
2 | 3:10.03 | 3:21.47 | 14253 | 29374
3 | 6:31.50 | 3:26.63 | 29375 | 44887
4 | 9:58.38 | 3:29.52 | 44888 | 60614
5 | 13:28.15 | 3:42.03 | 60615 | 77267
6 | 17:10.18 | 3:05.61 | 77268 | 91203
7 | 20:16.04 | 3:49.37 | 91204 | 108415
8 | 24:05.41 | 3:39.61 | 108416 | 124901
9 | 27:45.27 | 2:50.46 | 124902 | 137697
10 | 30:35.73 | 3:03.28 | 137698 | 151450
11 | 33:39.26 | 2:49.38 | 151451 | 164163
12 | 36:28.64 |&n
f59184dafefeed48d11bd900289b85cacde3dd4b(2012, сборник) VA | Горячая 20. Осень-Зима 2012-13 (Pop) [FLAC (image+.cue), lossless] (2012, сборник) VA | Горячая 20. Осень-Зима 2012-13 (Pop) [FLAC (image+.cue), lossless] " />

Аплоадер: Админ, дата: 10-12-2012, 20:17, торрент скачан: 359 раз

Понравилась раздача? Посмотрите эти:
  • (1993) Mick Jagger / Wandring Spirit (Rock) [FLAC(image+.cue), lossless]
  • (1996) George Michael / Older (1st Press Japan) (Electronic, Pop/Rock) [FLA ...
  • (1997) Моральный кодекс / Я выбираю тебя (подарочное издание 2007) (Pop-Roc ...
  • (2013, Сборник) VA / Новые и любимые хиты (Pop) [FLAC (image+.cue), lossles ...
  • (2011, сборник) VA / Горячая 20. Осень-Зима 2011/12 (Pop) [Mp3, 320/CBR]
  • (2012, сборник) VA | Горячая 20. Осень-Зима 2012-13 (Pop) [MP3, 320/CBR]
  • (2010) Ассаи / Лифт (Rap) [FLAC(image+.cue), lossless]
  • (2008) Юрий Наумов / Рок как будто Блюз (Blues) [FLAC (Image+.cue), lossles ...
  • (2009) D-Man 55 / 7.62 Б-30 (Rap) [FLAC (image+.cue) lossless]
  • (1996) DJ Dado / The Album (Electronic, Dream trance) [FLAC (image+.сue), l ...
  • (2012) Руставели / Начало света (Rap) [FLAC (image+.cue), lossless]
  • (2012) Сергей Васюта и Сладкий Сон / На белом покрывале января... (Pop) [Fl ...
  • (2012, Сборник) VA / Хиты 80-х в Новых Версиях (Pop) [FLAC (image+.cue), lo ...
  • (2004) Игорь Малинин / От Штирлица до Путина (Pop) [FLAC (image+.cue), los ...
  • (2012) Jim Brickman / Love (2010) (Piano, Instrumental, New Age) [FLAC (ima ...
  • (1993) Крис Кельми / Greatest Hits (Pop-Rock) [FLAC (image+.cue), lossless] ...
  • (2011) Стас Михайлов / Только ты (Шансон) [Flac(image+.cue)Lossless]
  • (2011, сборник) VA / Новогодняя тридцатка 2012 (Pop, Chanson) [FLAC (image+ ...
  • (2011) Metallica / Beyond Magnetic (Thrash Metal) [FLAC (image+.cue), lossl ...
  • (2012) Юрий Шатунов / Я верю... (Pop) [FLAC (image+.cue), lossless]
  • Информация
    Посетители, находящиеся в группе Гости, не могут оставлять комментарии к данной публикации.