вход на сайт

Имя пользователя :
Пароль :

Восстановление пароля Регистрация
(1995) The Gary Tesca Orchestra / Amor amor - The Julio Iglesias Story (Pop) [FLAC (image+.cue), lossless]
Рейтинг:
(голосов: 1)



[img]{THEME}/images/logopost.png[/img]




Исполнитель: The Gary Tesca Orchestra
Страна: США
Альбом: Amor amor - The Julio Iglesias Story
Тип альбома: Студийный
Год выпуска: 1995
Жанр: Pop
Аудиокодек: FLAC (*.flac)
Тип рипа: image+.cue
Битрейт: lossless
Продолжительность: 00:55:17


Tреклист:
01. Amor (03:28)
02. Volver A Empezar (04:29)
03. Pobre Diablo (03:03)
04. Quiereme (02:39)
05. Un Sentimental (04:03)
06. Que Nadie Sepa Mi Sufrir (03:27)
07. Quiereme Mucho (03:51)
08. Quizas, Quizas, Quizas (02:53)
09. De Nina A Mujer (03:18)
10. Manuela (03:42)
11. Hey (03:44)
12. Amigo (02:59)
13. Vaya Condios (03:04)
14. Quiero (03:08)
15. Un Canto A Galicia (04:23)
16. Por Un Poco De Tu Amor (02:56)


Лог создания рипа ▼TextExact Audio Copy V1.0 beta 3 from 29. August 2011

Отчёт EAC об извлечении, выполненном 10. ноября 2012, 20:26

The Gary Tesca Orchestra / Amor amor - The Julio Iglesias Story

Дисковод: PIONEER DVD-RW DVR-118L Adapter: 0 ID: 0

Режим чтения : Достоверность
Использование точного потока : Да
Отключение кэша аудио : Да
Использование указателей C2 : Нет

Коррекция смещения при чтении : 6
Способность читать области Lead-in и Lead-out : Нет
Заполнение пропущенных сэмплов тишиной : Да
Удаление блоков с тишиной в начале и конце : Нет
При вычислениях CRC использовались нулевые сэмплы : Да
Интерфейс : Встроенный Win32-интерфейс для Win NT/2000

Выходной формат : Пользовательский кодировщик
Выбранный битрейт : 768 kBit/s
Качество : Высокий
Добавление ID3-тега : Нет
Утилита сжатия : C:Program FilesExact Audio CopyFLACFLAC.EXE
Дополнительные параметры : -V -8 -T "Date=%year%" -T "Genre=%genre%" %source%

TOC извлечённого CD

Трек | Старт | Длительность | Начальный сектор | Конечный сектор
---------------------------------------------------------------------
1 | 0:00.33 | 3:28.70 | 33 | 15702
2 | 3:29.28 | 4:29.12 | 15703 | 35889
3 | 7:58.40 | 3:03.10 | 35890 | 49624
4 | 11:01.50 | 2:39.68 | 49625 | 61617
5 | 13:41.43 | 4:03.62 | 61618 | 79904
6 | 17:45.30 | 3:27.50 | 79905 | 95479
7 | 21:13.05 | 3:51.70 | 95480 | 112874
8 | 25:05.00 | 2:53.73 | 112875 | 125922
9 | 27:58.73 | 3:18.50 | 125923 | 140822
106904fa8a94f29c9081f9e58b5bb1084fc2ba6f(1995) The Gary Tesca Orchestra / Amor amor - The Julio Iglesias Story (Pop) [FLAC (image+.cue), lossless] (1995) The Gary Tesca Orchestra / Amor amor - The Julio Iglesias Story (Pop) [FLAC (image+.cue), lossless] " />

Аплоадер: Админ, дата: 26-11-2012, 15:46, торрент скачан: 359 раз

Понравилась раздача? Посмотрите эти:
  • (1993) Coverdale & Page / Coverdale & Page (EMI Holland)(Hard Rock) [FLAC ( ...
  • (2000) a-ha / Minor Earth | Major Sky (Alternative Rock, Synth-pop ) [FLAC ...
  • (2013) Al Di Meola / All Your Life (Fusion) [FLAC (image+.cue), lossless]
  • (2013) Аркадий Северный и ансамбль «Четыре брата и лопата» / Концерт памяти ...
  • (2013) МакSим (Максим) / Другая реальность (Рор) [FLAC (image+.cue), lossle ...
  • (2013) Маклай и Ганза / Статус-Кво (Rap, Hip-Hop) [FLAC (Tracks+.Cue), Loss ...
  • (2013) Баста / Баста 4 (Rap, Hip-Hop) [FLAC (Tracks+.Cue), Lossless]
  • (2013) Loc-Dog & Tony VA / Все знают всё (Rap, Hip-Hop) [FLAC (Tracks+.Cue ...
  • (2013) Krokus / Dirty Dynamite (Hard Rock) [FLAC (image+.cue), lossless]
  • (2012) Рем Дигга / Черника (Rap) [FLAC (tracks+.cue), lossless]
  • (2012) Три Кита (Зануда, Gipsy King, Тато) / Три Кита (Rap) [FLAC (tracks+. ...
  • (2010) Schiller / Breathless (Electronic) [FLAC (image+.cue), lossless]
  • (2010) БИ-2 / О чём говорят мужчины (Pop-Rock) [FLAC (image + .cue), lossle ...
  • (2011) ДДТ / Иначе/P.S. (Русский Рок) [FLAC(image+.cue), lossless]
  • (1997) Jazz Cafe / Simple Pleasures (Jazz, instrumental) [FLAC (image+.сue ...
  • (2012) The Rasmus / The Rasmus (Alternative Rock/Melodic Rock) [FLAC (track ...
  • (1993) Mireille Mathieu / Chante Piaf (Pop) [FLAC (tracks+.cue), lossless]
  • (2012) The Blues Overdrive / The Blues Overdrive (Blues-Rock) [FLAC (image+ ...
  • (2012) Gary Clark Jr. / Blak and Blu (Blues, Rock) [FLAC (image+.cue), loss ...
  • (2012) Триада / Мои глаза открыты (Rap) [FLAC (tracks+.cue), lossless]
  • (2012) KREC / Молча проще (Rap) [FLAC (tracks+.cue), lossless]
  • (2011) Ассаи / ОМ (Rap) [FLAC (tracks+.cue), lossless]
  • (2012) Ария / Live In Studio (Heavy Metal) [FLAC (image+.сue), lossless]
  • (2008) Nirvana / The Best Of (Grunge, Alternative) [FLAC (image+.сue), loss ...
  • (2012) Словетский / Мозайка (Rap) [FLAC (tracks+.cue), lossless]
  • Информация
    Посетители, находящиеся в группе Гости, не могут оставлять комментарии к данной публикации.