вход на сайт

Имя пользователя :
Пароль :

Восстановление пароля Регистрация
(2005) Анна Герман / Наши любимые песни (Pop, Retro) [FLAC(image+.cue), lossless]
Рейтинг:
(голосов: 1)



[img]{THEME}/images/logopost.png[/img]



Исполнитель: Анна Герман
Альбом: Наши любимые песни
Страна: Польша(СССР)
Тип альбома: Студийный
Год выпуска: 2005

Жанр: Pop, Retro
Формат: FLAC(image+.cue)
Битрейт: lossless
Продолжительность: 01:13:43

Треклист:

[04:49] 01. Когда цвели сады
[02:35] 02. Белая черемуха
[03:05] 03. А он мне нравиться
[02:45] 04. Быть может (на польском)
[03:27] 05. Вернись в сорренто (на англ., польском)
[02:17] 06. Весна
[02:10] 07. Двое
[03:03] 08. Ave Maria (на итальянском)
[04:40] 09. Гори, гори, моя звезда
[03:41] 10. Надежда
[03:57] 11. Найду тебя
[04:44] 12. Клыбельная
[03:12] 13. Невеста
[03:26] 14. Опять плывут куда-то корабли (на польском)
[03:44] 15. Осенняя песня
[03:14] 16. Анна Герман - Песня
[04:24] 17. Танцующие Эвридики (на польском)
[03:57] 18. Случайность
[03:09] 19. Русская раздольная
[03:17] 20. Эхо люби
[03:56] 21. Последняя встреча



Отчёт ЕАС: ▼TextExact Audio Copy V1.0 beta 3 from 29. August 2011
Отчёт EAC об извлечении, выполненном 20. октября 2012, 13:48
Анна Герман / Наши любимые песни
Дисковод: TSSTcorpCDDVDW TS-L633J Adapter: 0 ID: 1
Режим чтения : Достоверность
Использование точного потока : Да
Отключение кэша аудио : Да
Использование указателей C2 : Нет
Коррекция смещения при чтении : 6
Способность читать области Lead-in и Lead-out : Нет
Заполнение пропущенных сэмплов тишиной : Да
Удаление блоков с тишиной в начале и конце : Нет
При вычислениях CRC использовались нулевые сэмплы : Да
Интерфейс : Встроенный Win32-интерфейс для Win NT/2000
Выходной формат : Пользовательский кодировщик
Выбранный битрейт : 1024 kBit/s
Качество : Высокий
Добавление ID3-тега : Нет
Утилита сжатия : C:Program Files (x86)Exact Audio CopyFLACFLAC.EXE
Дополнительные параметры : -8 -V -T "ARTIST=%artist%" -T "TITLE=%title%" -T "ALBUM=%albumtitle%" -T "DATE=%year%" -T "TRACKNUMBER=%tracknr%" -T "GENRE=%genre%" -T "COMMENT=%comment%" -T "BAND=%albuminterpret%" -T "ALBUMARTIST=%albuminterpret%" -T "COMPOSER=%composer%" %haslyrics%--tag-from-file=LYRICS="%lyricsfile%"%haslyrics% -T "DISCNUMBER=%cdnumber%" -T "TOTALDISCS=%totalcds%" -T "TOTALTRACKS=%numtracks%" %hascover%--picture="%coverfile%"%hascover% %source% -o %dest%
TOC извлечённого CD
Трек | Старт | Длительность | Начальный сектор | Конечный сектор
---------------------------------------------------------------------
1 | 0:00.00 | 4:49.35 | 0 | 21709
2 | 4:49.35 | 2:35.06 | 21710 | 33340
3 | 7:24.41 | 3:05.34 | 33341 | 47249
4 | 10:30.00 | 2:45.69 | 47250 | 59693
5 | 13:15.69 | 3:27.45 | 59694 | 75263
&
bea6ae19f0e2d0629521efd74cee14efce537ce7(2005) Анна Герман / Наши любимые песни (Pop, Retro) [FLAC(image+.cue), lossless] (2005) Анна Герман / Наши любимые песни (Pop, Retro) [FLAC(image+.cue), lossless] " />

Аплоадер: Админ, дата: 11-11-2012, 15:51, торрент скачан: 359 раз

Понравилась раздача? Посмотрите эти:
  • (1993) Coverdale & Page / Coverdale & Page (EMI Holland)(Hard Rock) [FLAC ( ...
  • (2013) Buddy Guy / Rhythm & Blues (2CD) (Blues) [FLAC (image+.cue), Lossles ...
  • (2013) Paul McCartney / New (Deluxe Edition) (Rock) [FLAC (image,+.cue), lo ...
  • (2013) Loc-Dog & Tony VA / Все знают всё (Rap, Hip-Hop) [FLAC (Tracks+.Cue ...
  • (2012) Рем Дигга / Черника (Rap) [FLAC (tracks+.cue), lossless]
  • (2010) Schiller / Breathless (Electronic) [FLAC (image+.cue), lossless]
  • (2010) БИ-2 / О чём говорят мужчины (Pop-Rock) [FLAC (image + .cue), lossle ...
  • (2005, сборник) VA / Магия Гитары (Instrumental) [FLAC (tracks+.cue), lossl ...
  • (1997) Jazz Cafe / Simple Pleasures (Jazz, instrumental) [FLAC (image+.сue ...
  • (Дискография, 2006-2011) Светлана Копылова (Православная песня) [FLAC (imag ...
  • (2012) Адвайта / Не спать (Rap) [FLAC (tracks+.cue), lossless]
  • (2012) Триада / Мои глаза открыты (Rap) [FLAC (tracks+.cue), lossless]
  • (2012) KREC / Молча проще (Rap) [FLAC (tracks+.cue), lossless]
  • (2011) Ассаи / ОМ (Rap) [FLAC (tracks+.cue), lossless]
  • (2011) SeeS / The enD (Progressive/Math Metal) [FLAC (tracks+.cue), lossles ...
  • (2012) Bleeding Through / The Great Fire (Symphonic Metalcore/Hardcore) [FL ...
  • (2012) Ария / Live In Studio (Heavy Metal) [FLAC (image+.сue), lossless]
  • (2008) Nirvana / The Best Of (Grunge, Alternative) [FLAC (image+.сue), loss ...
  • (2012) Словетский / Мозайка (Rap) [FLAC (tracks+.cue), lossless]
  • (2012) Елена Ваенга / Лена (Шансон) [FLAC (image+.cue), lossless]
  • Информация
    Посетители, находящиеся в группе Гости, не могут оставлять комментарии к данной публикации.