вход на сайт

Имя пользователя :
Пароль :

Восстановление пароля Регистрация
(2010) Rurutia / Behind the blue (J-Pop, Experimental, New Age) [WavPack (iso.wv), lossless]
Рейтинг:
(голосов: 1)



[img]{THEME}/images/logopost.png[/img]



Исполнитель: Rurutia
Альбом: Behind the blue
Тип альбома: Студийный (Мини-альбом)
Лейбл: Phoenix Records
Номер по каталогу: PHOX-100008
Год выпуска: 2010
Жанр: J-Pop, Experimental, New Age
Аудиокодек: WavPack (.wv)
Тип Рипа: iso.wv
Битрейт: lossless
Продолжительность: 00:41:54

Tреклист:
01. Behind the blue (4:52)
02. Rainbow (4:56)
03. 花綴り (silky jazz ver.) (5:22)
04. 夢蛍 (candle night remix) (3:24)
05. Rainbow (alegria dance remix) (5:11)
06. Behind the blue (midnight story remix) (5:18)
07. LAST DAY (autumn moon remix) (4:29)
08. Behind the blue (inst) (4:52)
09. Rainbow (inst) (4:55)

"Отчет EAC" ▼TextExact Audio Copy V0.99 prebeta 4 from 23. January 2008

EAC 取り込みログファイル 日付 : 11. 10月 2010, 13:56

イサテハ・「ゥ`・ニ・」・ケ・ネ / イサテハ・ソ・、・ネ・・

使用ドライブ : Optiarc DVD RW AD-7700H Adapter: 0 ID: 1

読み込みモード : セキュアモード
ドライブが正確なデータ転送能力を持つ : はい
オーディオキャッシュを使用できる : はい
C2エラー情報を検出する : いいえ

読み込みサンプルオフセット訂正値 : 48
リードイン・リードアウトをオーバーリードする : いいえ
欠落したオフセットサンプルを無音で補完する : はい
曲の先頭と末端の無音領域を削除する : いいえ
CRC計算で無音のサンプルを使用するか : はい
使用インターフェース : Win NT & 2000用のクラスドライバ

使用出力モード : 内蔵WAV出力ルーチン
サンプルフォーマット : 44.100 Hz; 16 Bit; ステレオ


TOC情報を抜き出します

トラック | スタート | 長さ | 始めのセクター | 最終セクター
----------------------------------------------------------------
1 | 0:00.60 | 4:52.12 | 60 | 21971
2 | 4:52.72 | 4:56.00 | 21972 | 44171
3 | 9:48.72 | 5:22.05 | 44172 | 68326
4 | 15:11.02 | 3:23.71 | 68327 | 83622
5 | 18:34.73 | 5:10.61 | 83623 | 106933
6 | 23:45.59 | 5:17.52 | 106934 | 130760
7 | 29:03.36 | 4:29.31 | 130761 | 150966
8 | 33:32.67 | 4:52.12 | 150967 | 172878
9 | 38:25.04 | 4:55.16 | 172879 | 195019


範囲取り込みステータス & エラー

選択された範囲

ファイル名 G:new cd2Unknown Artist - イサテハ・ソ・、・ネ・・wav

ピークレベル 98.8 %
範囲取り込み品質 100.0 %
コピーCRC 5F891CC8
コピー OK

エラーは発生しませんでした

ステータス報告完了

"Отчет auCDtect Task Manager" ▼Text-----------------------

DONT MODIFY THIS FILE

-----------------------

PERFORMER: auCDtect Task Manager, ver. 1.5.1RC4 build 1.5.1.5
Copyright (c) 2008-2010 y-soft. All rights reserved
http://y-soft.org

ANALYZER: auCDtect: CD records authenticity detector, version 0.8.2
Copyright (c) 2004 Oleg Berngardt. All rights reserved.
Copyright (c) 2004 Alexand
63555476fe251f112e839afe049596aeb01267fe(2010) Rurutia / Behind the blue (J-Pop, Experimental, New Age) [WavPack (iso.wv), lossless] (2010) Rurutia / Behind the blue (J-Pop, Experimental, New Age) [WavPack (iso.wv), lossless] " />

Аплоадер: Админ, дата: 19-10-2012, 05:11, торрент скачан: 359 раз

Понравилась раздача? Посмотрите эти:
  • (2013) Michael Bublé / To Be Loved (Deluxe Edition) (Vocal Jazz, Pop) [FLAC ...
  • (дискография, 1985—2003) STING / Стинг — 8 CD (Rock, pop) [lossless, FLAC ( ...
  • (1997) Шанхай (Маргулис) / До свидания, друг (Blues, Rock) [APE (image+.cue ...
  • (2011, сборник) VA / Bora-Bora Ibiza Summer 2011 (WEB) (Tech House, Minimal ...
  • (Дискография, 2006-2010) Черный кузнец (Heavy Power Metal) [WavPack (image ...
  • (2011) Sander van Doorn / Eleve11 (Trance, House) (Web) [FLAC (tracks), los ...
  • (2011) Armin van Buuren / Armin Only - Mirage: The Music (Trance, Progressi ...
  • (2011) Lauge & Baba Gnohm / Langbortistan (Psybient, Drone, Downtempo, Ambi ...
  • (Дискография, 2001-2012) Многоточие (Rap) [APE (image+.сue), FLAC (tracks,i ...
  • (2012) Nicki Minaj / Pink Friday: Roman Reloaded (Deluxe Edition) (Hip-Hop, ...
  • (Дискография 2007-2011) Myrath (Progressive Metal/Ethnic Metal) [APE,FLAC ( ...
  • (2012) Emma Hewitt / Burn The Sky Down (Trance) [FLAC (tracks), Lossless]
  • (2012, сборник) VA / Paul Oakenfold DJ Box - June 2012 (Trance) [FLAC (trac ...
  • (2012) Rurutia / NODE From R (J-Pop, Experimental, New Age) [WavPack (iso.w ...
  • (2011) SkriLLex / Bangarang (Electro House, Dubstep) [ALAC (tracks), lossle ...
  • (2012) John B / Light Speed (Drum & Bass) (Web) [FLAC (tracks), lossless]
  • (2012, сборник) VA / Black Box One (Drum & Bass) (Web) [FLAC (tracks), loss ...
  • (2010) B-Complex / Beautiful Lies VIP (Drum & Bass) (Web) [FLAC (tracks+.cu ...
  • (2010) B-Complex / Salad Is OK (Drum & Bass) (Web) [FLAC (tracks+.cue), los ...
  • (2011) Enduser / Even Weight (Drum & Bass, Downtempo, Breakcore) (Web) [FLA ...
  • (2003) Muffler / Soundz Of The Future (Drum & Bass) (Web) [FLAC (tracks), l ...
  • (2012) Noisia / Split The Atom: Special Edition (Drum & Bass, Dubstep) (Web ...
  • (2012) Camo & Krooked / Between The Lines (Drum & Bass, Dubstep) [FLAC (tra ...
  • (2010) Ferry Corsten pres. System F / Out Of The Blue (Incl. Tiesto Remix) ...
  • (Дискография) Баста / Ноггано (Russian Rap) [WAVPack (image+.cue) lossless] ...
  • Информация
    Посетители, находящиеся в группе Гости, не могут оставлять комментарии к данной публикации.