вход на сайт

Имя пользователя :
Пароль :

Восстановление пароля Регистрация
(Дискография, 2006-2012) Shym (French Pop, Dance, R&B, Soul) [FLAC (image+.cue), lossless]
Рейтинг:
(голосов: 1)



[img]{THEME}/images/logopost.png[/img]



Дискография
Исполнитель: Shym
Страна: France
Год выпуска:2006-2012
Жанр:French Pop, Dance, R&B, Soul
Аудиокодек: FLAC (*.flac)
Тип рипа: image+.cue
Битрейт: lossless
Лог файлы: присутствуют
Наличие сканов в содержимом раздачи: Есть
Продолжительность: 03:36:06

Об исполнителе: Shym (настоящее имя Тамара Марте) - французская певица. Выступает в стилях R&B, Соул, Хип-хоп и Поп. Широкую известность получила благодаря первому альбому Mes Fantaisies, вышедшему в 2006 году.

Wikipedia | Official page | Last.fm | Facebook

Студийные:
2006 - Mes Fantaisies (FLAC (image+.cue)) ▼

Продолжительность: 00:51:29

Tреклист:
01. Shym (3:38)
02. Femme de couleur (3:36)
03. Ta lady (4:01)
04. Sur les dancefloors (3:43)
05. Oublié moi (3:04)
06. Pour vous (3:29)
07. Le blues de toi (4:13)
08. Mes fantaisies (3:49)
09. T es parti (3:23)
10. Tu comprendras (3:43)
11. Reves d enfants (3:51)
12. Victoire (3:46)
13. Femme de couleur remix feat neiman (3:54)
14. Victoire remix (3:26)

Лог создания рипа ▼Text
Exact Audio Copy V1.0 beta 3 from 29. August 2011

Отчёт EAC об извлечении, выполненном 23. августа 2012, 17:00

Shym / Mes Fantaisies

Дисковод: LITE-ON DVDRW SOHW-1693S Adapter: 3 ID: 1

Режим чтения : Достоверность
Использование точного потока : Да
Отключение кэша аудио : Да
Использование указателей C2 : Нет

Коррекция смещения при чтении : 12
Способность читать области Lead-in и Lead-out : Нет
Заполнение пропущенных сэмплов тишиной : Да
Удаление блоков с тишиной в начале и конце : Нет
При вычислениях CRC использовались нулевые сэмплы : Да
Интерфейс : Встроенный Win32-интерфейс для Win NT/2000

Выходной формат : Пользовательский кодировщик
Выбранный битрейт : 128 kBit/s
Качество : Высокий
Добавление ID3-тега : Нет
Утилита сжатия : C:Program Files (x86)FLACFLAC frontend.exe
Дополнительные параметры : -V -8 -T "Date=%year%" -T "Genre=%genre%" %source%

TOC извлечённого CD

Трек | Старт | Длительность | Начальный сектор | Конечный сектор
---------------------------------------------------------------------
1 | 0:00.00 | 3:37.56 | 0 | 16330
2 | 3:37.56 | 3:35.45 | 16331 | 32500
3 | 7:13.26 | 4:01.35 | 32501 | 50610
4 | 11:14.61 | 3:42.40 | 50611 | 67300
5 | 14:57.26 | 3:04.05 | 67301 | 81105
6 | 18:01.31 | 3:28.43 | 81106 | 96748
7 | 21:29.74 | 4:12.42 | 96749 | 115690
&nb
237a7ded2c3138bba57e98d04be3086ab1fad2b3(Дискография, 2006-2012) Shym (French Pop, Dance, R&B, Soul) [FLAC (image+.cue), lossless] (Дискография, 2006-2012) Shym (French Pop, Dance, R&B, Soul) [FLAC (image+.cue), lossless] " />

Аплоадер: Админ, дата: 15-10-2012, 21:35, торрент скачан: 359 раз

Понравилась раздача? Посмотрите эти:
  • (1993) Coverdale & Page / Coverdale & Page (EMI Holland)(Hard Rock) [FLAC ( ...
  • (2013) Al Di Meola / All Your Life (Fusion) [FLAC (image+.cue), lossless]
  • (2013) Аркадий Северный и ансамбль «Четыре брата и лопата» / Концерт памяти ...
  • (2013) МакSим (Максим) / Другая реальность (Рор) [FLAC (image+.cue), lossle ...
  • (2013) Loc-Dog & Tony VA / Все знают всё (Rap, Hip-Hop) [FLAC (Tracks+.Cue ...
  • (2013) Krokus / Dirty Dynamite (Hard Rock) [FLAC (image+.cue), lossless]
  • (2012) Рем Дигга / Черника (Rap) [FLAC (tracks+.cue), lossless]
  • (2006) Батырхан Шукенов/ Отан Ана (Pop) [FLAC (image+.cue) lossless]
  • (2006) Tokio / puls 200 (Alternative Rock / Pop Rock) [FLAC (image+.cue) lo ...
  • (2011) ДДТ / Иначе/P.S. (Русский Рок) [FLAC(image+.cue), lossless]
  • (1997) Jazz Cafe / Simple Pleasures (Jazz, instrumental) [FLAC (image+.сue ...
  • (Дискография, 2006-2011) Светлана Копылова (Православная песня) [FLAC (imag ...
  • (2012) The Blues Overdrive / The Blues Overdrive (Blues-Rock) [FLAC (image+ ...
  • (1995) The Gary Tesca Orchestra / Amor amor - The Julio Iglesias Story (Pop ...
  • (2012) Триада / Мои глаза открыты (Rap) [FLAC (tracks+.cue), lossless]
  • (2012) KREC / Молча проще (Rap) [FLAC (tracks+.cue), lossless]
  • (2012) Dan Balan / Freedom. Part 1 (Pop, Dance) [FLAC (image+.cue), lossles ...
  • (2012) Ария / Live In Studio (Heavy Metal) [FLAC (image+.сue), lossless]
  • (2008) Nirvana / The Best Of (Grunge, Alternative) [FLAC (image+.сue), loss ...
  • (2012) Walter Trout / Blues For The Modern Daze (Blues, Blues Rock) [FLAC ( ...
  • Информация
    Посетители, находящиеся в группе Гости, не могут оставлять комментарии к данной публикации.