вход на сайт

Имя пользователя :
Пароль :

Восстановление пароля Регистрация
(2012, Сборник) VA / Хиты 80-х в Новых Версиях (Pop) [FLAC (image+.cue), lossless]
Рейтинг:
(голосов: 1)



[img]{THEME}/images/logopost.png[/img]




Сборник
Исполнитель:Various Artists
Название сборника: Хиты 80-х в Новых Версиях
Год выпуска:2012
Жанр:Pop
Год первоначального издания альбома:2012
Страна (Издатель, Каталожный номер): Россия (NIKITIN, МДС-CD 90/12)
Аудиокодек: FLAC (*.flac) / В формате MP3
Тип рипа: image+.cue
Битрейт: lossless
Продолжительность: 01:19:31


Tреклист:
01. Al Bano Carrisi - Felicita (New Version) - 03:52
02. Bad Boys Blue - Youre A Woman (Re-Recorded) - 03:43
03. Ricci E Poveri - Mamma Maria (Reloaded) - 05:15
04. Mauro - Buona Sera Ciao Ciao (New Party Version) - 03:55
05. Sabrina - Boys (Remix) - 04:01
06. Desirelis - Voyage, Voyage (International Radio Remix) - 04:33
07. Kaoma vs. MS Project - Tago Mago (New Version) - 03:09
08. Baccara - Yes Sir, I Can Boogie (New Version) - 03:49
09. Londonbeat - Ive Been Thinking About You (New Version) - 03:50
10. Toto Cutugno - LItaliano (New Version) - 04:10
11. Ricci E Poveri - Come Vorrei (Reloaded) - 03:44
12. Chris Norman - Living Next Door To Alice (New Version) - 03:30
13. Bad Boys Blue - I Wanna Hear Your Heartbeat (Sunday Girl) (Re-Recorded) - 03:46
14. Righeira - Vamos A La Playa (New Version) - 03:40
15. Radiorama - Desire (New Version) - 04:52
16. JOY - Touch By Touch (New Version) - 03:46
17. Fancy - A Voice In The Dark (New Version) - 03:58
18. Mike Mareen - Agent Of Liberty (New Version) - 03:37
19. Bobby Farrell - Sunny - 04:11
20. Mr. Zivago - Russian Paradise - 03:59

Лог создания рипа ▼TextExact Audio Copy V0.99 prebeta 5 from 4. May 2009

EAC extraction logfile from 25. August 2012, 2:44

Various / Хиты 80-х в Новых Версиях

Used drive : PIONEER DVD-RW DVR-212 Adapter: 8 ID: 0

Read mode : Secure
Utilize accurate stream : Yes
Defeat audio cache : Yes
Make use of C2 pointers : No

Read offset correction : 48
Overread into Lead-In and Lead-Out : No
Fill up missing offset samples with silence : Yes
Delete leading and trailing silent blocks : No
Null samples used in CRC calculations : Yes
Used interface : Installed external ASPI interface

Used output format : Internal WAV Routines
Sample format : 44.100 Hz; 16 Bit; Stereo

TOC of the extracted CD

Track | Start | Length | Start sector | End sector
---------------------------------------------------------
1 | 0:00.00 | 3:52.01 | 0 | 17400
2 | 3:52.01 | 3:43.60 | 17401 | 34185
3 | 7:35.61 | 5:15.37 | 34186 | 57847
4 | 12:51.23 | 3:55.64 | 57848 | 75536
5 | 16:47.12 | 4:01.74 | 75537 | 93685
6 | 20:49.11 | 4:33.01 | 93686 | 114161
7 | 25:22.12 | 3:09.18 | 114162 | 128354
8 | 28:31.30 | 3:49.22 | 128355 | 145551
9 | 32:20.52 | 3:50.62 | 145552 | 162863
10 | 36:11.39 | 4:10.37 | &
16f4e93f5235009e0c3120e4d5f7426675df034a(2012, Сборник) VA / Хиты 80-х в Новых Версиях (Pop) [FLAC (image+.cue), lossless] (2012, Сборник) VA / Хиты 80-х в Новых Версиях (Pop) [FLAC (image+.cue), lossless] " />

Аплоадер: Админ, дата: 22-09-2012, 17:12, торрент скачан: 359 раз

Понравилась раздача? Посмотрите эти:
  • (1993) Mick Jagger / Wandring Spirit (Rock) [FLAC(image+.cue), lossless]
  • (1996) George Michael / Older (1st Press Japan) (Electronic, Pop/Rock) [FLA ...
  • (2013, Сборник) VA / Новые и любимые хиты (Pop) [FLAC (image+.cue), lossles ...
  • (2012, Сборник) VA / Хиты 80-х в Новых Версиях (Pop) [MP3 (tracks, image), ...
  • (1989) Kaoma / Lambada (lambada / latin / ethnic) [FLAC (image+.cue), lossl ...
  • (2010) Ассаи / Лифт (Rap) [FLAC(image+.cue), lossless]
  • (2010) A-HA / 25 (2 CD) (Pop) [FLAC (image + .cue)]
  • (2010) Нюша / Выбирать чудо (Pop) [FLAC(tracks+.cue), lossless]
  • (2008) Юрий Наумов / Рок как будто Блюз (Blues) [FLAC (Image+.cue), lossles ...
  • (2009) D-Man 55 / 7.62 Б-30 (Rap) [FLAC (image+.cue) lossless]
  • (1996) DJ Dado / The Album (Electronic, Dream trance) [FLAC (image+.сue), l ...
  • (2012) Сергей Васюта и Сладкий Сон / На белом покрывале января... (Pop) [Fl ...
  • (2012) Christina Aguilera / The Best (Unofficial) (Pop) [FLAC (image+.cue), ...
  • (2008-2012, Сборник) VA / The Twilight Saga (5 CD) (Soundtrack) [FLAC (trac ...
  • (2004) Игорь Малинин / От Штирлица до Путина (Pop) [FLAC (image+.cue), los ...
  • (2012, сборник) VA | Горячая 20. Осень-Зима 2012-13 (Pop) [FLAC (image+.cue ...
  • (2012) Jim Brickman / Love (2010) (Piano, Instrumental, New Age) [FLAC (ima ...
  • (1993) Крис Кельми / Greatest Hits (Pop-Rock) [FLAC (image+.cue), lossless] ...
  • (2011) Yanni / Truth Of Touch (New Age) [FLAC (image+ .cue),lossless]
  • (2011) Стас Михайлов / Только ты (Шансон) [Flac(image+.cue)Lossless]
  • Информация
    Посетители, находящиеся в группе Гости, не могут оставлять комментарии к данной публикации.