вход на сайт

Имя пользователя :
Пароль :

Восстановление пароля Регистрация
(2012) Michael Jackson / Bad (25th Anniversary Edition 2 CD) (Pop, Dance) [FLAC (image+.cue), lossless]
Рейтинг:
(голосов: 1)



[img]{THEME}/images/logopost.png[/img]




Исполнитель: Michael Jackson
Альбом: Bad (25th Anniversary Edition 2 CD)
Тип альбома:Студийный альбом
Год выпуска:2012
Жанр:Pop, Dance
Страна (Издатель, Каталожный номер): EU(MJJ, Epic, Legacy, Sony Music88691999702)
Аудиокодек: FLAC (*.flac)
Тип рипа: image+.cue
Битрейт: lossless
Лог файлы: присутствуют
Наличие сканов в содержимом раздачи: Есть
Продолжительность: 01:48:04


Wikipedia| last.fm| Official page | Facebook

Об исполнителе: Майкл Джозеф Джексон — американский артист, автор и исполнитель песен, танцор, композитор, филантроп, предприниматель. Один из самых успешных исполнителей в истории, обладатель 15 премий Грэмми и сотен других премий. 13 раз занесён в Книгу рекордов Гиннесса; в мире продано порядка миллиарда копий альбомов Джексона. В 2009 году официально признан Легендой Америки и Иконой Музыки. Майкл Джексон внёс значительный вклад в развитие популярной музыки, видеоклипов, танца и моды. Майкл Джексон скончался 25 июня 2009 года в результате передозировки лекарственных препаратов, в частности, пропофола.

Юбилейное переиздание легендарного шедевра... 31 августа 2012 года исполнилось четверть века со дня выхода альбома Майкла Джексона "Bad" - одной из основопологающих пластинок поп-музыки 80-х, ставшей достойным продолжением "Thriller". Майкл вернулся после пятилетнего молчания и сумел оправдать все возложенные на него надежды. Тур в поддержку диска стал первыми мировыми гастролями Майкла в качестве сольного артиста. Турне, длившееся 16 месяцев, включало 123 шоу, которые посетили свыше 4,4 миллионов зрителей. Сумарный тираж альбом к 2012 превысил 45 миллионов копий. Юбилейное переиздание "Bad" - великолепный подарок всем поклонникам поп-музыки.


СD1 (FLAC (image+.cue)) ▼
Продолжительность:00:48:14

Tреклист:
01. Bad (4:08)
02. The Way You Make Me Feel (4:59)
03. Speed Demon (4:05)
04. Liberian Girl (3:50)
05. Just Good Friends (4:08)
06. Another Part Of Me (3:58)
07. Man In The Mirror (5:19)
08. I Just Cant Stop Loving You (4:11)
09. Dirty Diana (4:42)
10. Smooth Criminal (4:19)
11. Leave Me Alone (4:40)

Лог создания рипа ▼Text
Exact Audio Copy V1.0 beta 3 from 29. August 2011

EAC uitlezen log bestand van 16. September 2012, 13:19

Michael Jackson / Bad 25 (CD1)

gebruikt loopwerk : PIONEER DVD-RW DVR-219L Adapter: 3 ID: 0

Lees mode : : Veilig
Gebruik accurate stream : Ja
Audio buffer uitgeschakeld : Ja
Maak gebruik van C2 pointers : Neen

Lees-offset correctie : : 6
Overlees in Lead-In en Lead-Out : Neen
Vul ontbrekende offset samples met stiltes aan : Ja
Wis stilte blokken aan het begin en einde : Neen
Nul samples gebruikt in CRC berekeningen : Ja
Gebruikte interface : Native Win32 interface voor Win NT & 2000

Gebruik uitgave formaat : : Interne WAV Routines
Sample formaat : 44.100 Hz; 16 Bit; Stereo


TOC van de uitgelezen CD

Track | Start | Lengte | Start sector | Eind sector
----------------------------------------------------------
1 | 0:00.00 | 4:07.43 | 0 | 18567
2 | 4:07.43 | 4:59.13 | 18568 | 41005
3 | 9:06.56 | 4:04.58 | 41006 |
2fd10e691effffa1634e8c3610ec4d7349a91b12(2012) Michael Jackson / Bad (25th Anniversary Edition 2 CD) (Pop, Dance) [FLAC (image+.cue), lossless] (2012) Michael Jackson / Bad (25th Anniversary Edition 2 CD) (Pop, Dance) [FLAC (image+.cue), lossless] " />

Аплоадер: Админ, дата: 20-09-2012, 21:40, торрент скачан: 359 раз

Понравилась раздача? Посмотрите эти:
  • (1996) George Michael / Older (1st Press Japan) (Electronic, Pop/Rock) [FLA ...
  • (2013) Buddy Guy / Rhythm & Blues (2CD) (Blues) [FLAC (image+.cue), Lossles ...
  • (Дискография) Michael Jackson (Часть 1) (POP) [MP3, 192-320/CBR-VBR]
  • (Дискография) Michael Jackson (Часть 2) (POP) [MP3, 128-320/CBR-VBR]
  • (Дискография) Michael Jackson (Часть 3) (POP) [MP3, 128-320/CBR-VBR]
  • (2007) GORILLAZ / D-Sides [Japan Edition] (Hip-Hop) [FLAC (image+cue), loss ...
  • (2010) Michael Jackson - Michael (Pop) [FLAC, (tracks+.cue), lossless]
  • (2009) Michael Jackson / The Stripped Mixes (POP) [Flac / Tracks + .cue]
  • (2012) George Michael / White Light (Pop, Electronic) [FLAC (image+.cue), l ...
  • (2012) Madonna / MDNA (Japan Edition) (Pop) [FLAC (image+.cue), lossless]
  • (2012) Bryan Adams / 1983-Cuts Like a Knife (Rock) [FLAC (image+.cue), loss ...
  • (2012) Medina / Forever (Gold Edition) (2 CD) (Pop, Dance, Synth-pop) [FLAC ...
  • (2011) Sam Levine / Smooth Sax Romance (Smooth Jazz) [FLAC (image+.cue), lo ...
  • (2012) Pantera / Vulgar Display Of Power (20th Anniversary Edition 2012) (A ...
  • (2012) Jim Brickman / Love (2010) (Piano, Instrumental, New Age) [FLAC (ima ...
  • (2012) Dan Balan / All The Hits (Orange Exclusiv) (Pop, Dance) [FLAC (image ...
  • (2010) Shakira / Sale El Sol (Latin Pop, Merengue) [FLAC(tracks+.cue), loss ...
  • (Full Studio Discography, 2011) George Michael (Japan) (Pop) [FLAC (image+. ...
  • (2011) Metallica / Beyond Magnetic (Thrash Metal) [FLAC (image+.cue), lossl ...
  • (2012) Muse / The 2nd Law (Alternative Rock, Progressive Rock) [FLAC (image ...
  • Информация
    Посетители, находящиеся в группе Гости, не могут оставлять комментарии к данной публикации.