вход на сайт

Имя пользователя :
Пароль :

Восстановление пароля Регистрация
(2012) George Michael / White Light (Pop, Electronic) [FLAC (image+.cue), lossless]
Рейтинг:
(голосов: 1)



[img]{THEME}/images/logopost.png[/img]




Исполнитель: George Michael
Альбом: White Light
Тип альбома:Сингл
Год выпуска:2012
Жанр:Pop, Electronic
Страна (Издатель, Каталожный номер): Германия(Island Records Group, 602537100200)
Аудиокодек: FLAC (*.flac)
Тип рипа: image+.cue
Битрейт: lossless
Лог файлы: присутствуют
Наличие сканов в содержимом раздачи: Есть
Продолжительность: 00:22:02


Wikipedia| last.fm| Official page | Amazon

Об исполнителе: George Michael — популярный британский певец. За его сольную карьеру и пока он был участником дуэта Wham! было продано около 80 миллионов его записей. Обладатель двух премий «Грэмми» — за «альбом года» («Faith», 1988 год) и лучший R&B дуэт (с Аретой Франклин, 1987 год).


Tреклист:
01. White Light (4:38)
02. Song To The Siren (3:36)
03. White Light (Voodoo Sonics Remix) (7:01)
04. White Light (Kinky Roland Remix) (6:47)

Лог создания рипа ▼Text
Exact Audio Copy V1.0 beta 3 from 29. August 2011

EAC extraction logfile from 12. August 2012, 23:10

George Michael / White Light

Used drive : Optiarc BD RW BD-5300S Adapter: 3 ID: 0

Read mode : Secure
Utilize accurate stream : Yes
Defeat audio cache : Yes
Make use of C2 pointers : No

Read offset correction : 6
Overread into Lead-In and Lead-Out : No
Fill up missing offset samples with silence : Yes
Delete leading and trailing silent blocks : No
Null samples used in CRC calculations : Yes
Used interface : Installed external ASPI interface

Used output format : User Defined Encoder
Selected bitrate : 1024 kBit/s
Quality : High
Add ID3 tag : No
Command line compressor : C:Program Files (x86)Exact Audio CopyFlacflac.exe
Additional command line options : -8 -V -T "Date=%year%" -T "Genre=%genre%" -T "COMMENT=ripped by bvstudio®" %source%


TOC of the extracted CD

Track | Start | Length | Start sector | End sector
---------------------------------------------------------
1 | 0:00.00 | 4:38.21 | 0 | 20870
2 | 4:38.21 | 3:36.11 | 20871 | 37081
3 | 8:14.32 | 7:01.12 | 37082 | 68668
4 | 15:15.44 | 6:47.11 | 68669 | 99204


Range status and errors

Selected range

Filename F:George Michael - White Light - 2012George Michael - White Light.wav

Peak level 98.8 %
Extraction speed 6.0 X
Range quality 100.0 %
Test CRC 59346B46
Copy CRC 59346B46
Copy OK

No errors occurred


AccurateRip summary

Track 1 not present in database
Track 2 not present in database
Track 3 not present in database
Track 4 not present in database

None of the tracks are present in the Acc
1d0b9b550bb14998673fafff278aaf4bfdc0cb5c(2012) George Michael / White Light (Pop, Electronic) [FLAC (image+.cue), lossless] (2012) George Michael / White Light (Pop, Electronic) [FLAC (image+.cue), lossless] " />

Аплоадер: Админ, дата: 19-08-2012, 13:45, торрент скачан: 359 раз

Понравилась раздача? Посмотрите эти:
  • (1996) George Michael / Older (1st Press Japan) (Electronic, Pop/Rock) [FLA ...
  • (2013) Buddy Guy / Rhythm & Blues (2CD) (Blues) [FLAC (image+.cue), Lossles ...
  • (2013) Linkin Park / Recharged (Electronic Rock / Electro House) [FLAC (ima ...
  • (2013) Linkin Park & Steve Aoki / A Light That Never Comes (Electronic Rock ...
  • (2013) Linkin Park / Castle Of Glass (Alternative) [FLAC (image+.cue), Loss ...
  • (2013) Depeche Mode - Heaven (CD Maxi-Single) (Synthpop) [FLAC (image+.cue) ...
  • (1989) Kaoma / Lambada (lambada / latin / ethnic) [FLAC (image+.cue), lossl ...
  • (2011) Sepultura / Kairos (Thrash Metal) [Flac(image+.cue)lossless]
  • (2002) PPK (ППК) / ReLoad. Russian Trance (Trance) [FLAC (tracks+cue), loss ...
  • (2012) Linkin Park / Burn It Down (Alternative Rock) (Single) [FLAC (image+ ...
  • (2006) The Rasmus / Shot (Single) (Alternative Rock) [FLAC (tracks+.cue), l ...
  • (2012) Madonna / Superstar (Pop) [FLAC (image+.cue), lossless]
  • (2012, Сборник) VA / Top 20. Зарубежный. 8 часть (Pop) [FLAC (image+.cue), ...
  • (2011) VA / Танцевальный Рай 27 (Pop) [FLAC (image+.cue), lossless]
  • (2011) Linkin Park / Iridescent (Alternative Rock) [FLAC(image+.cue), lossl ...
  • (Full Studio Discography, 2011) George Michael (Japan) (Pop) [FLAC (image+. ...
  • (2011) Stargazery / Eye On The Sky (Heavy Metal) [FLAC (image+.cue), lossle ...
  • (2011) Rammstein / Mein Land (Neue Deutsche Harte, Industrial, Tanz-Metal) ...
  • (2011) Metallica / Beyond Magnetic (Thrash Metal) [FLAC (image+.cue), lossl ...
  • (2012) Fox / 2012 (Melodic Hard Rock) [FLAC (image +.cue), lossless]
  • (2012) Peter White / Here We Go (Smooth Jazz) [FLAC (tracks+.cue), lossles ...
  • (2012) KoRn feat. Skrillex / Chaos Lives In Everything (UK Promo) (Nu-metal ...
  • (2012) Game Over / For Humanity (Thrash Metal) [FLAC (image+.cue), lossless ...
  • (2011) Ink Stained Promises / Relations. (Metalcore, Hardcore) [FLAC (track ...
  • (2012) Laid Back / Cosmic Vibes (Electronic, Pop, Electro, Downtempo) [FLAC ...
  • Информация
    Посетители, находящиеся в группе Гости, не могут оставлять комментарии к данной публикации.