вход на сайт

Имя пользователя :
Пароль :

Восстановление пароля Регистрация
(Дискография, 2008-2011) Aura Dione (Pop) [FLAC (image+.cue), lossless]
Рейтинг:
(голосов: 1)



[img]{THEME}/images/logopost.png[/img]




Дискография
Исполнитель:Aura Dione
Страна: Danish
Год выпуска: 2008-2011
Жанр:Pop
Аудиокодек: FLAC (*.flac)
Тип рипа: image+.cue
Битрейт: lossless
Лог файлы: присутствуют
Наличие сканов в содержимом раздачи: Есть
Продолжительность: 01:23:32

Об исполнителе: Aura Dione родилась 21 января 1985 в Копенгагене, мать с Фарерских островов и французского происхождения, а отец из северной части Ютландии , но имеет испанские корни. Мама и отец познакомили ее с музыкой, и первая песня была написана, когда она была в возрасте 8 лет. Ее родители были хиппи и плавали вокруг Мирового океана с ней, до 7 лет воспитывалась на Борнхольме . Здесь певица начала посещать школу и поступила в среднюю школу, а в средней Aura переехала в Австралию, где искала вдохновение у аборигенов. Это привело позже к написанию текста к песне Something From Nothing.

Она дебютировала в чартах летом 2007 года с синглом «From Nothing», но добилась успехов и композиция » Song for Sophie «- обе из альбома» Columbine, который был выпущен в 2008 году. Сингл » I Will Love You Monday «был лишь незначительным хитом в Дании, но был хитом № 1 в Германии, где песня вынесена в расширенный вариант под названием» I Will Love You Monday (365) «.
4ноября 2011года выпускает свой второй по счету альбом названный «Beforte the dinosaurs» , а 21октября 2011года предшедствующий ему взрывной и лиричный сингл «Geronimo».


Wikipedia|YouTube|Facebook|Official page |Last.fm

Студийные:
2008 - Columbine (FLAC (image+.cue)) ▼


Продолжительность: 00:39:37

Tреклист:
01. Aura Dione - Glass Bone Crash [02:19]
02. Aura Dione - Song For Sophie [03:18]
03. Aura Dione - Little Louie [04:22]
04. Aura Dione - I Will Love You Monday [03:22]
05. Aura Dione - Clean Hands [03:49]
06. Aura Dione - Something From Nothing [03:20]
07. Aura Dione - Picture Of The Moon [02:42]
08. Aura Dione - Stay The Same [03:10]
09. Aura Dione - Are You For Sale [02:06]
10. Aura Dione - You Are The Reason [03:00]
11. Aura Dione - Antony [04:37]
12. Aura Dione - Lulla Goodbye [03:27]

Лог создания рипа ▼Text
Exact Audio Copy V0.99 prebeta 5 from 4. May 2009

EAC extraction logfile from 9. April 2012, 19:37

Aura Dione / Columbine

Used drive : HL-DT-STDVDRAM GH24NS50 Adapter: 2 ID: 0

Read mode : Secure
Utilize accurate stream : Yes
Defeat audio cache : Yes
Make use of C2 pointers : No

Read offset correction : 667
Overread into Lead-In and Lead-Out : No
Fill up missing offset samples with silence : Yes
Delete leading and trailing silent blocks : No
Null samples used in CRC calculations : Yes
Used interface : Native Win32 interface for Win NT & 2000

Used output format : Internal WAV Routines
Sample format : 44.100 Hz; 16 Bit; Stereo

TOC of the extracted CD

Track | Start | Length | Start sector | End sector
---------------------------------------------------------
1 | 0:00.00 | 2:20.36 | 0 | 10535
2 | 2:20.36 | 3:18.32 | 10536 | 25417
3 | 5:38.68 | 4:23.53 | 25418 | 45195
4 | 10:02.46 | 3:23.42 | 45196 | 60462
5 | 13:26.13 | 3:50.27 |
069f37fe4c1258b8dba094c0b32478e05b9e9ac4(Дискография, 2008-2011) Aura Dione (Pop) [FLAC (image+.cue), lossless] (Дискография, 2008-2011) Aura Dione (Pop) [FLAC (image+.cue), lossless] " />

Аплоадер: Админ, дата: 30-07-2012, 00:34, торрент скачан: 359 раз

Понравилась раздача? Посмотрите эти:
  • (2008) Ella Fitzgerald & Louis Armstrong / Autumn In New York (Vocal Jazz) ...
  • (2011) Kool Savas / Aura (Hip-Hop) [320, kbps/CBR]
  • (Дискография, 2008-2011) Aura Dione (Pop) [MP3, 320/CBR]
  • (2007) GORILLAZ / D-Sides [Japan Edition] (Hip-Hop) [FLAC (image+cue), loss ...
  • (2008) Ассаи / Фаталист (Rap) [Ape(image+.cue), lossless]
  • (2008) Pink / Funhouse (Pop) [FLAC (tracks) lossless]
  • (Дискография, 2002 - 2011) Sophie Ellis-Bextor (Pop/Dance) [FLAC (image+.cu ...
  • (2008) Юрий Наумов / Рок как будто Блюз (Blues) [FLAC (Image+.cue), lossles ...
  • (Дискография, 1985 - 2009) Sandra (Pop) [APE (image+.cue), FLAC (image+.cue ...
  • (Дискография, 1988-2011) Kingdom Come (Hard&Heavy,Glam Metal) [FLAC (image+ ...
  • (Дискография, 2004-2011) Petra Berger (Classical Crossover) [FLAC (image+.c ...
  • (Дискография, 2007-2012) Leona Lewis (Pop, R&B, Soul) [FLAC (tracks+.cue, i ...
  • (2011) Sam Levine / Smooth Sax Romance (Smooth Jazz) [FLAC (image+.cue), lo ...
  • (2012) Jim Brickman / Love (2010) (Piano, Instrumental, New Age) [FLAC (ima ...
  • (2012, Сборник) VA / Top 20. Зарубежный. 8 часть (Pop) [FLAC (image+.cue), ...
  • (1976) The Eagles / Hotel California [Japan Remastered] (Country Rock) [FLA ...
  • (2011) Yanni / Truth Of Touch (New Age) [FLAC (image+ .cue),lossless]
  • (2011) Стас Михайлов / Только ты (Шансон) [Flac(image+.cue)Lossless]
  • (2011) Metallica / Beyond Magnetic (Thrash Metal) [FLAC (image+.cue), lossl ...
  • Aura Dione / Geronimo [2012, Pop, WebRip]
  • (Дискография, 2005-2010) Юлия Савичева (Pop) [FLAC (image+.cue), lossless]
  • Aura Dione ft. Rock Mafia/ Frends [2012, Pop, WebRip]
  • Aura Dione / Song for Sophie [2010, Pop, WebRip]
  • (Дискография, 2008-2011) Bon Iver (Folk-rock, Indie-folk, Indie-rock) [FLAC ...
  • Aura Dione / In Love With The World [2012, Pop, HDRip]
  • Информация
    Посетители, находящиеся в группе Гости, не могут оставлять комментарии к данной публикации.