вход на сайт

Имя пользователя :
Пароль :

Восстановление пароля Регистрация
(2011, Сборник) VA / The Worlds Greatest Ballads (3CD) (Pop) [FLAC (tracks+.cue), lossless]
Рейтинг:
(голосов: 1)



[img]{THEME}/images/logopost.png[/img]




Сборник
Исполнитель:Various Artists
Название сборника:The Worlds Greatest Ballads (3CD)
Год выпуска:2011
Жанр:Pop
Страна (Издатель, Каталожный номер): Израиль(Sony Music, 88697857392)
Аудиокодек: FLAC (*.flac)
Тип рипа: tracks+.cue
Битрейт: lossless
Продолжительность: 03:17:35



СD 1 (FLAC (tracks+.cue)) ▼
Продолжительность: 01:05:31

Tреклист:
01. Beyonce - If i were a boy (4:13)
02. Christina Aguilera - Beautiful (4:02)
03. Alicia Keys - Empire state of mind (Part ll) broken down (3:37)
04. Leona Lewis - Bleeding love (4:02)
05. Pink - Just like a pill (3:59)
06. Kelly clarkson - Because of you (3:41)
07. The Script - The man who cant be moved (4:03)
08. Shakira - Underneath your clothes (3:47)
09. Train - Drops of jupiter (4:22)
10. Avril Lavigne - Complicated (4:07)
11. Daniel Merriweather - Red (3:56)
12. Will Young - Leave right now (3:34)
13. Britney Spears - Everytime (3:43)
14. Lemar - Its not that easy (3:24)
15. The Calling - Wherever you will go (3:30)
16. The Fray - How to save a life (4:03)

Лог создания рипа ▼Text
Exact Audio Copy V1.0 beta 3 from 29. August 2011

Отчёт EAC об извлечении, выполненном 21. февраля 2012, 21:40

- / The Worlds Greatest Ballads

Дисковод: HL-DT-STDVDRAM GSA-H62N Adapter: 0 ID: 2

Режим чтения : Достоверность
Использование точного потока : Да
Отключение кэша аудио : Да
Использование указателей C2 : Нет

Коррекция смещения при чтении : 667
Способность читать области Lead-in и Lead-out : Нет
Заполнение пропущенных сэмплов тишиной : Да
Удаление блоков с тишиной в начале и конце : Нет
При вычислениях CRC использовались нулевые сэмплы : Да
Интерфейс : Встроенный Win32-интерфейс для Win NT/2000
Обработка зазоров : Добавлено к предыдущему треку

Выходной формат : Пользовательский кодировщик
Выбранный битрейт : 1024 kBit/s
Качество : Высокий
Добавление ID3-тега : Нет
Утилита сжатия : C:Program Files (x86)Exact Audio CopyFlacflac.exe
Дополнительные параметры : -V -8 -T "Genre=%genre%" -T "Artist=%artist%" -T "Title=%title%" -T "Album=%albumtitle%" -T "Date=%year%" -T "Tracknumber=%tracknr%" -T "Comment=%comment%" %source%

TOC извлечённого CD

Трек | Старт | Длительность | Начальный сектор | Конечный сектор
---------------------------------------------------------------------
1 | 0:00.00 | 4:12.69 | 0 | 18968
2 | 4:12.69 | 4:01.69 | 18969 | 37112
3 | 8:14.63 | 3:37.28 | 37113 | 53415
4 | 11:52.16 | 4:02.14 | 53416 | 71579
5 | 15:54.30 | 3:58.69  
9711be2073bbf8507b7fbd4a864bb8f1446626b9(2011, Сборник) VA / The Worlds Greatest Ballads (3CD) (Pop) [FLAC (tracks+.cue), lossless] (2011, Сборник) VA / The Worlds Greatest Ballads (3CD) (Pop) [FLAC (tracks+.cue), lossless] " />

Аплоадер: Админ, дата: 27-07-2012, 16:36, торрент скачан: 359 раз

Понравилась раздача? Посмотрите эти:
  • (2012) Sting / Fifteen Healing Bites (Pop Rock)(Chinese Dragon) [FLAC (trac ...
  • (2013) Linkin Park / Underground XIII (Alternative Rock) [FLAC (tracks+.cue ...
  • (2013) Смоки Мо / Младший (Rap, Hip-Hop) [FLAC (Tracks+.Cue), Lossless]
  • (2013) Маклай и Ганза / Статус-Кво (Rap, Hip-Hop) [FLAC (Tracks+.Cue), Loss ...
  • (2013) Lone / Спутник (Rap, Hip-Hop) [FLAC (Tracks+.Cue), Lossless]
  • (2013) Стриж / Игристое (Rap, Hip-Hop) [FLAC (Tracks+.Cue), Lossless]
  • (2013) Баста / Баста 4 (Rap, Hip-Hop) [FLAC (Tracks+.Cue), Lossless]
  • (2013) Loc-Dog & Tony VA / Все знают всё (Rap, Hip-Hop) [FLAC (Tracks+.Cue ...
  • (1989) Fausto Papetti / Magic Sax [Vol. 2] (Instrumental) [FLAC (tracks+.cu ...
  • (2012) Рем Дигга / Черника (Rap) [FLAC (tracks+.cue), lossless]
  • (2012) Три Кита (Зануда, Gipsy King, Тато) / Три Кита (Rap) [FLAC (tracks+. ...
  • (2012) The Rasmus / The Rasmus (Alternative Rock/Melodic Rock) [FLAC (track ...
  • (2012) Guf / Сам И ... (Rap) [FLAC (tracks+.cue), lossless]
  • (2012) Адвайта / Не спать (Rap) [FLAC (tracks+.cue), lossless]
  • (2012) Триада / Мои глаза открыты (Rap) [FLAC (tracks+.cue), lossless]
  • (2012) KREC / Молча проще (Rap) [FLAC (tracks+.cue), lossless]
  • (2012) Птаха / Старые тайны (Rap) [FLAC (tracks+.cue), lossless]
  • (2012) Rammstein / Mein Herz brennt (Industrial, Tanz-Metal) [FLAC (tracks ...
  • (2011) Ассаи / ОМ (Rap) [FLAC (tracks+.cue), lossless]
  • (2012) Словетский / Мозайка (Rap) [FLAC (tracks+.cue), lossless]
  • Информация
    Посетители, находящиеся в группе Гости, не могут оставлять комментарии к данной публикации.