вход на сайт

Имя пользователя :
Пароль :

Восстановление пароля Регистрация
(2012) Rumer / Boys Dont Cry (Special Edition) (Pop, Soul) [APE (image+.cue), lossless]
Рейтинг:
(голосов: 1)



[img]{THEME}/images/logopost.png[/img]



Исполнитель: Rumer
Страна: Великобритания
Альбом: Boys Dont Cry
Вариант издания: Special Edition
Тип альбома: Студийный
Год выпуска: 2012
Жанр: Pop, Soul
Страна (Издатель, Каталожный номер): Великобритания (Warner Music UK Limited, 5053105230853)
Аудиокодек: APE
Тип рипа: image+.cue
Битрейт: lossless
Log-файл: Присутствует.
Наличие сканов в содержимом раздачи: Да. (JPG, 301DPI, 6,62MB)
Продолжительность: 00:55:14


Tреклист:
[04:10] 01. Rumer - P.F. Sloan
[02:27] 02. Rumer - It Could Be The First Day
[03:27] 03. Rumer - Be Nice To Me
[03:20] 04. Rumer - Travelin Boy
[03:46] 05. Rumer - Soulsville
[02:50] 06. Rumer - Same Old Tears On A New Background
[03:33] 07. Rumer - Sara Smile
[04:04] 08. Rumer - Flyin Shoes
[03:27] 09. Rumer - Home Thoughts From Abroad
[02:39] 10. Rumer - Just For A Moment
[04:10] 11. Rumer - Brave Awakening
[04:00] 12. Rumer - We Will
Бонусы:
[02:54] 13. Rumer - Andre Johray
[03:33] 14. Rumer - Soul Rebel
[02:50] 15. Rumer - My Cricket
[03:59] 16. Rumer - A Man Needs A Maid

Лог создания рипа ▼TextExact Audio Copy V0.99 prebeta 4 from 23. January 2008

Отчёт EAC об извлечении, выполненном 12. июня 2012, 22:28

Rumer / Boys Dont Cry

Дисковод: HL-DT-STDVDRAM GH20LS10 Adapter: 3 ID: 1

Режим чтения : Достоверность
Использование точного потока : Да
Отключение кэша аудио : Да
Использование указателей C2 : Нет

Коррекция смещения при чтении : 667
Способность читать области Lead-in и Lead-out : Нет
Заполнение пропущенных сэмплов тишиной : Да
Удаление блоков с тишиной в начале и конце : Нет
При вычислениях CRC использовались нулевые сэмплы : Да
Интерфейс : Встроенный Win32-интерфейс для Win NT/2000

Выходной формат : Внутренние WAV-операции
Формат сэмплов : 44.100 Гц; 16 бит; стерео

TOC извлечённого CD

Трек | Старт | Длительность | Начальный сектор | Конечный сектор
---------------------------------------------------------------------
1 | 0:00.00 | 4:10.56 | 0 | 18805
2 | 4:10.56 | 2:27.12 | 18806 | 29842
3 | 6:37.68 | 3:27.01 | 29843 | 45368
4 | 10:04.69 | 3:20.68 | 45369 | 60436
5 | 13:25.62 | 3:46.42 | 60437 | 77428
6 | 17:12.29 | 2:50.04 | 77429 | 90182
7 | 20:02.33 | 3:33.12 | 90183 | 106169
8 | 23:35.45 | 4:04.07 | 106170 | 124476
9 | 27:39.52 | 3:27.00 | 124477 | 140001
10 | 31:06.52 | 2:
986e2167c7ed3f7b91cab768fb5b364ca8efe807(2012) Rumer / Boys Dont Cry (Special Edition) (Pop, Soul) [APE (image+.cue), lossless] (2012) Rumer / Boys Dont Cry (Special Edition) (Pop, Soul) [APE (image+.cue), lossless] " />

Аплоадер: Админ, дата: 18-07-2012, 12:33, торрент скачан: 359 раз

Понравилась раздача? Посмотрите эти:
  • (2000) Lenny Kravitz / Greatest Hits (Rock, Funk) [FLAC (image+.cue), lossl ...
  • (1992) Smokie / The Story Of Smokie (2CD Set Germany, BMG, Ariola) (Rock) [ ...
  • (2002) a-ha / Lifelines (Alternative Rock, Synth-pop ) [FLAC (image + .cue ...
  • (1995) Corona / The Rhythm Of The Night (Japan) (Eurodance) [FLAC (image+. ...
  • (2012) Григорий Лепс / Полный вперёд (Шансон) [FLAC (image+.cue), Lossless ...
  • (дискография, 1983-2008) MADONNA (pop / dance) [WavPack (image+.cue) lossle ...
  • (2000) Tic Tac Toe / Ist der Ruf erst ruiniert... (Rap,Hip-hop) [Lossless, ...
  • (2007) Morandi / N3xt (Pop) [APE, (image + .cue), lossless]
  • (2010) ST1M / Октябрь (Rap) [APE(image+.cue), lossless]
  • (1985) BABYS GANG / Challenger (Pop,Italo Disco) [APE(image+.cue)lossless] ...
  • (2011) Blues Cousins / KGB Blues (Blues Rock) [FLAC (image+.cue), lossless] ...
  • (2005) плюм-Бум / Чистая правда (Funk, Reggae, Pop-Punk) [APE(image+.cue), ...
  • (2011) АукцЫон / Юла (Rock) [APE (image+.cue), lossless]
  • (2011) Modern Talking / Peace On Earth - Winter In My Heart (Disco, Christm ...
  • (1989) Motley Crue / Dr. Feelgood (Hard Rock, Heavy metal, Glam metal) [APE ...
  • (2012) Serebro / Mama Lover (Монолит) (Pop) [FLAC (image+.cue), lossless]
  • (2003) THE BLACK EYED PEAS / Elephunk (RnB) [Ape (image+.cue), lossless]
  • (2009) Челси / Точка возврата (Pop) [APE (image+.cue), lossless]
  • (2010) Lara Fabian / The Best of (2CD Limited Edition) (Pop) [Flac(image+.c ...
  • (2011) N1NT3NDO / N1NT3NDO (Rap) [APE (image+.сue), lossless]
  • (2011) Iron Savior / The Landing (Limited Edition) (Power/Heavy Metal) [FL ...
  • (2012) Paradise Lost / Tragic Idol (Limited Edition) (Gothic Rock, Metal) [ ...
  • (2004) Ex-Сектор Газа / Огненный рай (Punk-Rock) [FLAC (image+.cue), lossle ...
  • (2008) Студия 80 / Придуманный Мир (Pop) [FLAC (image+.cue), lossless]
  • (2012) Don Ray Band / Full Throttle (Blues, Blues-Rock) [APE (image+.cue), ...
  • Информация
    Посетители, находящиеся в группе Гости, не могут оставлять комментарии к данной публикации.