вход на сайт

Имя пользователя :
Пароль :

Восстановление пароля Регистрация
(2012) Christina Aguilera / The Best (Unofficial) (Pop) [FLAC (image+.cue), lossless]
Рейтинг:
(голосов: 1)



[img]{THEME}/images/logopost.png[/img]



Исполнитель: Christina Aguilera
Страна: US
Альбом: The Best
Тип альбома: Bootleg
Год выпуска: 2012
Жанр: Pop
Аудиокодек: FLAC (*.flac)
Тип рипа: image+.cue
Битрейт: lossless
Продолжительность: 01:17:10


Tреклист:

01 - Beautiful [3:59]
02 - Fighter [4:06]
03 - Candyman [3:14]
04 - Genie In A Bottle [3:37]
05 - Hurt [4:04]
06 - Not Myself Tonight (Dirty) [3:05]
07 - Aint No Other Man [3:47]
08 - You Lost Me [4:17]
09 - What A Girl Wants [3:35]
10 - Dirrty (No Rap Edit) [4:01]
11 - Keeps Gettin Better [3:02]
12 - I Turn To You (Radio Edit) [3:56]
13 - Oh Mother [3:45]
14 - Slow Down Baby [3:27]
15 - Reflection [3:34]
16 - Woohoo (Feat. Nicki Minaj) [5:28]
17 - Come On Over Baby (Radio Version) [3:23]
18 - Nobody Wants To Be Lonely (With Ricky Martin) [4:11]
19 - Cant Hold Us Down (Feat. Lil Kim) [4:15]
20 - The Christmas Song [4:25]
Лог создания рипа ▼TextExact Audio Copy V1.0 beta 3 from 29. August 2011
EAC extraction logfile from 28. April 2012, 0:15
Christina Aguilera / The Best
Used drive : PIONEER DVD-RW DVR-118L Adapter: 0 ID: 0
Read mode : Secure
Utilize accurate stream : Yes
Defeat audio cache : Yes
Make use of C2 pointers : No
Read offset correction : 6
Overread into Lead-In and Lead-Out : No
Fill up missing offset samples with silence : Yes
Delete leading and trailing silent blocks : No
Null samples used in CRC calculations : Yes
Used interface : Native Win32 interface for Win NT & 2000
Used output format : User Defined Encoder
Selected bitrate : 1024 kBit/s
Quality : High
Add ID3 tag : No
Command line compressor : C:Program FilesExact Audio CopyFlacflac.exe
Additional command line options : -V -8 -T "Date=%year%" -T "Genre=%genre%" %source%
TOC of the extracted CD
Track | Start | Length | Start sector | End sector
---------------------------------------------------------
1 | 0:00.00 | 3:58.39 | 0 | 17888
2 | 3:58.39 | 4:05.72 | 17889 | 36335
3 | 8:04.36 | 3:13.47 | 36336 | 50857
4 | 11:18.08 | 3:36.44 | 50858 | 67101
5 | 14:54.52 | 4:03.46 | 67102 | 85372
6 | 18:58.23 | 3:04.53 | 85373 | 99225
7 | 22:03.01 | 3:47.10 | 99226 | 116260
8 | 25:50.11 | 4:17.10 | 116261 | 135545
9 | 30:07.21 | 3:35.37 | 135546 | 151707
10 | 33:42.58 | 4:01.11 | 151708 | 169793
11 | 37:43.69 | 3:01.49 | 169794 | 183417
12 | 40:45.43 |&n
06ddff449ffb3a51f2a898a3044a4e3ca5160e0e(2012) Christina Aguilera / The Best (Unofficial) (Pop) [FLAC (image+.cue), lossless] (2012) Christina Aguilera / The Best (Unofficial) (Pop) [FLAC (image+.cue), lossless] " />

Аплоадер: Админ, дата: 7-07-2012, 16:09, торрент скачан: 359 раз

Понравилась раздача? Посмотрите эти:
  • (1996) George Michael / Older (1st Press Japan) (Electronic, Pop/Rock) [FLA ...
  • (1996) Константин Никольский / Один взгляд назад (Rock ) [APE (image + .cu ...
  • (2013) Buddy Guy / Rhythm & Blues (2CD) (Blues) [FLAC (image+.cue), Lossles ...
  • (2013) Paul McCartney / New (Deluxe Edition) (Rock) [FLAC (image,+.cue), lo ...
  • (2011) The Prodigy / Worlds On Fire (Big Beat, Rave) [FLAC (image+.cue), lo ...
  • (Дискография, 1988-2011) Kingdom Come (Hard&Heavy,Glam Metal) [FLAC (image+ ...
  • (2012) Uriah Heep / Logical Revelations (Hard Rock) [FLAC (image +.cue), lo ...
  • (1998) Roomful of Blues / There Goes The Neighborhood (Jump / Modern Electr ...
  • (2001, 5 CD Box set) VA / Rock Mantique Top 100 Vol.3 (Pop/Rock) [FLAC (ima ...
  • (2012) Britney Spears / Oops...I Did It Again - The Best Of Britney Spears ...
  • (2012) Netsky / 2 (Drum & Bass, Dubstep) [FLAC (tracks+.cue), lossless]
  • (2011) Stargazery / Eye On The Sky (Heavy Metal) [FLAC (image+.cue), lossle ...
  • (2011) Ленинград / Хна (Rock) [FLAC (tracks+.cue), lossless]
  • (2009) Mystica / Second Dive (Trance, Ambient & Downtempo, Chill Out) [FLAC ...
  • (2012) Anneke van Giersbergen / Everything Is Changing (Alternative Rock/Fe ...
  • (2011) Volumes / Via (Progressive Metalcore/Math Metal) [FLAC (image+.cue), ...
  • (2012) Fox / 2012 (Melodic Hard Rock) [FLAC (image +.cue), lossless]
  • (2012) Soulfly / Enslaved [Deluxe Edition] (Groove Metal/Thrash Metal) [FLA ...
  • (2012) KoRn feat. Skrillex / Chaos Lives In Everything (UK Promo) (Nu-metal ...
  • (2012) Game Over / For Humanity (Thrash Metal) [FLAC (image+.cue), lossless ...
  • Информация
    Посетители, находящиеся в группе Гости, не могут оставлять комментарии к данной публикации.