вход на сайт

Имя пользователя :
Пароль :

Восстановление пароля Регистрация
(1993) Mireille Mathieu / Chante Piaf (Pop) [FLAC (tracks+.cue), lossless]
Рейтинг:
(голосов: 1)



[img]{THEME}/images/logopost.png[/img]



Исполнитель: Mireille Mathieu
Страна: Germany
Альбом: Chante Piaf
Тип альбома: Студийный
Год выпуска: 1993
Жанр: Pop
Аудиокодек: FLAC (*.flac)
Тип рипа: tracks+.cue
Битрейт: lossless
Продолжительность: 00:43:03

Tреклист:
01. La vie en rose (3:48)
02. La foule (3:07)
03. Sous le ciel de Paris (3:18)
04. Mon Dieu (2:59)
05. Lhomme а la moto (2:09)
06. Exodus (3:46)
07. Padam padam (2:56)
08. Lhymne а lamour (3:36)
09. Mon manege а moi (3:03)
10. Jezebel (3:48)
11. Laccordeoniste (3:27)
12. Milord (4:45)
13. Non, je ne regrette rien (2:22)
Лог создания рипа ▼TextExact Audio Copy V0.99 prebeta 5 from 4. May 2009
Отчёт EAC об извлечении, выполненном 20. сентября 2010, 22:47
Mireille Mathieu / Chante PIAF
Дисковод: SONY DVD RW DRX-S70U Adapter: 1 ID: 0
Режим чтения : Достоверность
Использование точного потока : Да
Отключение кэша аудио : Да
Использование указателей C2 : Нет
Коррекция смещения при чтении : 48
Способность читать области Lead-in и Lead-out : Нет
Заполнение пропущенных сэмплов тишиной : Да
Удаление блоков с тишиной в начале и конце : Нет
При вычислениях CRC использовались нулевые сэмплы : Да
Интерфейс : Встроенный Win32-интерфейс для Win NT/2000
Выходной формат : Пользовательский кодировщик
Выбранный битрейт : 768 kBit/s
Качество : Высокий
Добавление ID3-тэга : Нет
Утилита сжатия : H:Program FilesExact Audio CopyFlacflac.exe
Дополнительные параметры : -6 -V -T "ARTIST=%a" -T "TITLE=%t" -T "ALBUM=%g" -T "DATE=%y" -T "TRACKNUMBER=%n" -T "GENRE=%m" -T "COMMENT=%e" %s -o %d
TOC извлечённого CD
Трек | Старт | Длительность | Начальный сектор | Конечный сектор
---------------------------------------------------------------------
1 | 0:00.00 | 3:47.70 | 0 | 17094
2 | 3:47.70 | 3:06.60 | 17095 | 31104
3 | 6:54.55 | 3:17.65 | 31105 | 45944
4 | 10:12.45 | 2:59.35 | 45945 | 59404
5 | 13:12.05 | 2:08.72 | 59405 | 69076
6 | 15:21.02 | 3:45.55 | 69077 | 86006
7 | 19:06.57 | 2:56.10 | 86007 | 99216
8 | 22:02.67 | 3:35.45 | 99217 | 115386
9 | 25:38.37 | 3:02.45 | 115387 | 129081
10 | 28:41.07 | 3:47.48 |
9dacf2514580acdad98d3ed8a4e65c329ec67959(1993) Mireille Mathieu / Chante Piaf (Pop) [FLAC (tracks+.cue), lossless] (1993) Mireille Mathieu / Chante Piaf (Pop) [FLAC (tracks+.cue), lossless] " />

Аплоадер: Админ, дата: 7-07-2012, 01:39, торрент скачан: 359 раз

Понравилась раздача? Посмотрите эти:
  • (1993) Coverdale & Page / Coverdale & Page (EMI Holland)(Hard Rock) [FLAC ( ...
  • (2000) a-ha / Minor Earth | Major Sky (Alternative Rock, Synth-pop ) [FLAC ...
  • (2012) Sting / Fifteen Healing Bites (Pop Rock)(Chinese Dragon) [FLAC (trac ...
  • (2013) Смоки Мо / Младший (Rap, Hip-Hop) [FLAC (Tracks+.Cue), Lossless]
  • (2013) Маклай и Ганза / Статус-Кво (Rap, Hip-Hop) [FLAC (Tracks+.Cue), Loss ...
  • (2013) Lone / Спутник (Rap, Hip-Hop) [FLAC (Tracks+.Cue), Lossless]
  • (2013) Стриж / Игристое (Rap, Hip-Hop) [FLAC (Tracks+.Cue), Lossless]
  • (2013) Баста / Баста 4 (Rap, Hip-Hop) [FLAC (Tracks+.Cue), Lossless]
  • (2013) Loc-Dog & Tony VA / Все знают всё (Rap, Hip-Hop) [FLAC (Tracks+.Cue ...
  • (1989) Fausto Papetti / Magic Sax [Vol. 2] (Instrumental) [FLAC (tracks+.cu ...
  • (2012) Рем Дигга / Черника (Rap) [FLAC (tracks+.cue), lossless]
  • (2012) Три Кита (Зануда, Gipsy King, Тато) / Три Кита (Rap) [FLAC (tracks+. ...
  • (2010) Schiller / Breathless (Electronic) [FLAC (image+.cue), lossless]
  • (2010) БИ-2 / О чём говорят мужчины (Pop-Rock) [FLAC (image + .cue), lossle ...
  • (2011) ГРОТ / О Пути По Встречной (Rap) [FLAC (tracks+.cue), lossless]
  • (1997) Jazz Cafe / Simple Pleasures (Jazz, instrumental) [FLAC (image+.сue ...
  • (2012) The Rasmus / The Rasmus (Alternative Rock/Melodic Rock) [FLAC (track ...
  • (2012) The Blues Overdrive / The Blues Overdrive (Blues-Rock) [FLAC (image+ ...
  • (2012) The Rasmus / The Rasmus (Tour Edition) FLAC (tracks+.cue), lossless
  • (2012) Guf / Сам И ... (Rap) [FLAC (tracks+.cue), lossless]
  • (2012) Триада / Мои глаза открыты (Rap) [FLAC (tracks+.cue), lossless]
  • (2012) KREC / Молча проще (Rap) [FLAC (tracks+.cue), lossless]
  • (2011) Ассаи / ОМ (Rap) [FLAC (tracks+.cue), lossless]
  • (2008) Nirvana / The Best Of (Grunge, Alternative) [FLAC (image+.сue), loss ...
  • (2012) Словетский / Мозайка (Rap) [FLAC (tracks+.cue), lossless]
  • Информация
    Посетители, находящиеся в группе Гости, не могут оставлять комментарии к данной публикации.