вход на сайт

Имя пользователя :
Пароль :

Восстановление пароля Регистрация
(2012) Morten Harket / Out Of My Hands (Pop) [FLAC (image+.cue), lossless]
Рейтинг:
(голосов: 1)



[img]{THEME}/images/logopost.png[/img]



Исполнитель: Morten Harket
Страна: Germany
Альбом: Out Of My Hands
Тип альбома: Студийный
Год выпуска: 2012
Жанр: Pop
Аудиокодек: FLAC (*.flac)
Тип рипа: image+.cue
Битрейт: lossless
Наличие сканов в содержимом раздачи: Да
Лог файлы: Присутствуют
Продолжительность: 00:38:20

Об исполнителе (об издании): Morten Harket, экс-вокалист романтической группы a-ha, выпустил новый сольный альбом. Альбом ‘Out of my hands’ вышел на Universal Music Germany в конце апреля. Выход релиза предваряли, по традиции, синглы — «Lightning» и «Scared of Heights». Альбомоставляет весьма приятное впечатление, и более того – воспринимается почти как новый альбом a-ha. Весьма похвальна традиционность Харкета, который не ударился в авангардные эксперименты, а остался верен красивым мелодиям и душевным распевам. А это дорогого стоит в наше время.

Tреклист:
01. Scared Of Heights [0:03:24]
02. Keep The Sun Away [0:03:21]
03. Lightning [0:03:55]
04. Im The One [0:03:24]
05. Quiet [0:04:22]
06. Burn Money Burn [0:03:53]
07. When I Reached The Moon [0:03:52]
08. Listening [0:04:55]
09. Just Believe It [0:03:31]
10. Out Of My Hands [0:03:37]

Отчет EAC ▼TextExact Audio Copy V1.0 beta 3 from 29. August 2011
EAC extraction logfile from 14. April 2012, 14:54
Morten Harket / Out Of My Hands
Used drive : Optiarc BD RW BD-5300S Adapter: 3 ID: 0
Read mode : Secure
Utilize accurate stream : Yes
Defeat audio cache : Yes
Make use of C2 pointers : No
Read offset correction : 6
Overread into Lead-In and Lead-Out : No
Fill up missing offset samples with silence : Yes
Delete leading and trailing silent blocks : No
Null samples used in CRC calculations : Yes
Used interface : Installed external ASPI interface
Used output format : User Defined Encoder
Selected bitrate : 1024 kBit/s
Quality : High
Add ID3 tag : No
Command line compressor : C:Program Files (x86)Exact Audio CopyFlacflac.exe
Additional command line options : -8 -V -T "Date=%year%" -T "Genre=%genre%" -T "COMMENT=ripped by bvstudio®" %source%
TOC of the extracted CD
Track | Start | Length | Start sector | End sector
---------------------------------------------------------
1 | 0:00.00 | 3:24.55 | 0 | 15354
2 | 3:24.55 | 3:21.46 | 15355 | 30475
3 | 6:46.26 | 3:55.74 | 30476 | 48174
4 | 10:42.25 | 3:24.33 | 48175 | 63507
5 | 14:06.58 | 4:22.62 | 63508 | 83219
6 | 18:29.45 | 3:53.37 | 83220 | 100731
7 | 22:23.07 | 3:52.53 | 100732 | 118184
8 | 26:15.60 | 4:55.20 | 118185 | 140329
9 | 31:11.05 | 3:31.26 | 
a4e9f1b3cb12bf8a58735b4b61b318cdb10e92ec(2012) Morten Harket / Out Of My Hands (Pop) [FLAC (image+.cue), lossless] (2012) Morten Harket / Out Of My Hands (Pop) [FLAC (image+.cue), lossless] " />

Аплоадер: Админ, дата: 1-07-2012, 23:51, торрент скачан: 359 раз

Понравилась раздача? Посмотрите эти:
  • (1996) George Michael / Older (1st Press Japan) (Electronic, Pop/Rock) [FLA ...
  • (2013) Buddy Guy / Rhythm & Blues (2CD) (Blues) [FLAC (image+.cue), Lossles ...
  • (2013) Leslie West / Still Climbing (Rock, Hard Rock, Blues Rock) [FLAC (im ...
  • (2013) Paul McCartney / New (Deluxe Edition) (Rock) [FLAC (image,+.cue), lo ...
  • (2013) Elton John / The Diving Board (Rock, Pop Rock) [FLAC (image+.cue), L ...
  • (2013) Govt Mule / Shout! (2CD) (Blues Rock) [FLAC (image+.cue), Lossless]
  • (2013) Alizee / 5 (French Pop) [FLAC (image+.cue), lossless]
  • (2008) The Magic Of Nomads / Bulbul Zaman (folk-ethnic / smooth jazz / inst ...
  • (2011) The Prodigy / Worlds On Fire (Big Beat, Rave) [FLAC (image+.cue), lo ...
  • (2011) Linkin Park / LP Underground 11 (Alternative Rock) [FLAC (Image+cue) ...
  • (2012) Uriah Heep / Logical Revelations (Hard Rock) [FLAC (image +.cue), lo ...
  • (2012) Christina Aguilera / The Best (Unofficial) (Pop) [FLAC (image+.cue), ...
  • (2012) George Michael / White Light (Pop, Electronic) [FLAC (image+.cue), l ...
  • (2011) Linkin Park / Iridescent (Alternative Rock) [FLAC(image+.cue), lossl ...
  • (2011) Stargazery / Eye On The Sky (Heavy Metal) [FLAC (image+.cue), lossle ...
  • (2009) Mystica / Second Dive (Trance, Ambient & Downtempo, Chill Out) [FLAC ...
  • (2012) Anneke van Giersbergen / Everything Is Changing (Alternative Rock/Fe ...
  • (2011) Volumes / Via (Progressive Metalcore/Math Metal) [FLAC (image+.cue), ...
  • (2012) Fox / 2012 (Melodic Hard Rock) [FLAC (image +.cue), lossless]
  • (2012) Soulfly / Enslaved [Deluxe Edition] (Groove Metal/Thrash Metal) [FLA ...
  • (2011) The Browning / Burn This World (Deathcore/Electronic) [FLAC (tracks+ ...
  • (2012) Morten Harket (a-ha) / Out Of My Hands (pop) [mp3, 320/CBR]
  • (2012) KoRn feat. Skrillex / Chaos Lives In Everything (UK Promo) (Nu-metal ...
  • (2012) Game Over / For Humanity (Thrash Metal) [FLAC (image+.cue), lossless ...
  • (2011) Phinehas / Thegodmachine (Metalcore) [FLAC (tracks+.cue), lossless]
  • Информация
    Посетители, находящиеся в группе Гости, не могут оставлять комментарии к данной публикации.