вход на сайт

Имя пользователя :
Пароль :

Восстановление пароля Регистрация
(1983) Laid Back / Keep Smiling (8304692) (Disco, New Wave, Post-Punk, Synthpop, Reagge) [FLAC (image+.cue), Lossless]
Рейтинг:
(голосов: 1)



[img]{THEME}/images/logopost.png[/img]



Исполнитель: Laid Back
Страна: Danish
Альбом: Keep Smiling
Тип альбома: Студийный
Год выпуска: 2012
Жанр: Disco, New Wave, Post-Punk, Synthpop, Reagge
Страна (Издатель, Каталожный номер): Netherlands (EMI, Medley Records (8304692, 724383046928))
Аудиокодек: FLAC
Тип рипа: image+.cue
Битрейт: lossless
Наличие сканов в содержимом раздачи: да (JPG, 600Dpi, 42MB)
Продолжительность: 00:38:59


Об исполнителе (об издании): Laid Back— датская поп-группа, сформированная в 1979 году, известность которой принесли хиты «Sunshine Reggae» (1982) и «White Horse» (1983). В дебютном альбоме Keep Smiling оба хита вы можете услышать.

Personal :
John Guldberg - vocals, guitars
Tim Stahl - vocals, keyboards, accordéon


Wikipedia | YouTube | Facebook | Official website


Tреклист:

01. Elevator Boy - 4:55
02. Slowmotion Girl - 5:51
03. White Horse - 3:56
04. So Wie So - 4:32
05. High Society Girl - 3:35
06. Dont Be Mean - 3:22
07. Sunshine Reggae - 4:17
08. Fly Away / Walking In The Sunshine - 8:30


Лог создания рипа (EAC) ▼Text
Exact Audio Copy V1.0 beta 3 from 29. August 2011

Отчёт EAC об извлечении, выполненном 10. января 2012, 23:31

Laid Back / Keep Smiling

Дисковод: SONY CD-RW CRX230ED Adapter: 0 ID: 1

Режим чтения : Достоверность
Использование точного потока : Да
Отключение кэша аудио : Да
Использование указателей C2 : Нет

Коррекция смещения при чтении : 6
Способность читать области Lead-in и Lead-out : Нет
Заполнение пропущенных сэмплов тишиной : Да
Удаление блоков с тишиной в начале и конце : Нет
При вычислениях CRC использовались нулевые сэмплы : Да
Интерфейс : Установленный внешний ASPI-интерфейс

Выходной формат : Внутренние WAV-операции
Формат сэмплов : 44.100 Гц; 16 бит; стерео


TOC извлечённого CD

Трек | Старт | Длительность | Начальный сектор | Конечный сектор
---------------------------------------------------------------------
1 | 0:00.00 | 4:55.05 | 0 | 22129
2 | 4:55.05 | 5:51.35 | 22130 | 48489
3 | 10:46.40 | 3:55.62 | 48490 | 66176
4 | 14:42.27 | 4:32.25 | 66177 | 86601
5 | 19:14.52 | 3:34.40 | 86602 | 102691
6 | 22:49.17 | 3:22.13 | 102692 | 117854
7 | 26:11.30 | 4:17.27 | 117855 | 137156
8 | 30:28.57 | 8:29.68 | 137157 | 175399


Характеристики диапазона
930bf7ccc0931582a9a2ef0bee47c43eb2697be2(1983) Laid Back / Keep Smiling (8304692) (Disco, New Wave, Post-Punk, Synthpop, Reagge) [FLAC (image+.cue), Lossless] (1983) Laid Back / Keep Smiling (8304692) (Disco, New Wave, Post-Punk, Synthpop, Reagge) [FLAC (image+.cue), Lossless] " />

Аплоадер: Админ, дата: 29-06-2012, 22:51, торрент скачан: 359 раз

Понравилась раздача? Посмотрите эти:
  • (2000) Lenny Kravitz / Greatest Hits (Rock, Funk) [FLAC (image+.cue), lossl ...
  • (1992) Smokie / The Story Of Smokie (2CD Set Germany, BMG, Ariola) (Rock) [ ...
  • (2002) a-ha / Lifelines (Alternative Rock, Synth-pop ) [FLAC (image + .cue ...
  • (2013) Laid Back / Uptimistic Music (2CD) ( Pop, Synthpop, Electronic) [MP ...
  • (2012) Григорий Лепс / Полный вперёд (Шансон) [FLAC (image+.cue), Lossless ...
  • (дискография, 1983-2008) MADONNA (pop / dance) [WavPack (image+.cue) lossle ...
  • (1981) Boney M / Christmas Album (UnRemaster) (Disco) [APE (image + .cue), ...
  • (1984) Boney M / Ten Thousand Lightyears (Disco) [APE (image+.cue) lossles ...
  • (1985) BABYS GANG / Challenger (Pop,Italo Disco) [APE(image+.cue)lossless] ...
  • (2011) Within Temptation / The Unforgiving (Symphonic Gothic Metal) [FLAC ( ...
  • (2005) плюм-Бум / Чистая правда (Funk, Reggae, Pop-Punk) [APE(image+.cue), ...
  • Laid Back / Elevator boy [1989, Synthpop, VHSRip]
  • Laid Back / Sunshine Reggae (Festivalbar) [1983, Synthpop, TVRip]
  • (Дискография, 2005-2008) Ёлка (R&B, Reggae, Pop) [APE (image+.cue); FLAC (i ...
  • (2011) КняZz / Письмо из Трансильвании (Punk-Rock) [APE (image+.сue), lossl ...
  • (2004) Ex-Сектор Газа / Огненный рай (Punk-Rock) [FLAC (image+.cue), lossle ...
  • (2012) Strange Contact / Retro (Synthpop) [FLAC (image+.сue), lossless]
  • (2008) Студия 80 / Придуманный Мир (Pop) [FLAC (image+.cue), lossless]
  • (2012) Laid Back / Cosyland (EP, BMCD004) (Disco, Synth-pop, Downtempo, Ele ...
  • (2012) Иван Кучин / Золотые хиты (Chanson) [FLAC (image+.cue), lossless]
  • Информация
    Посетители, находящиеся в группе Гости, не могут оставлять комментарии к данной публикации.