вход на сайт

Имя пользователя :
Пароль :

Восстановление пароля Регистрация
(2012) Britney Spears / Oops...I Did It Again - The Best Of Britney Spears (Pop, Dance) [FLAC (tracks+.cue), lossless]
Рейтинг:
(голосов: 1)



[img]{THEME}/images/logopost.png[/img]




Исполнитель:Britney Spears
Альбом:Oops...I Did It Again - The Best Of Britney Spears
Тип альбома:Compilation
Год выпуска:2012
Жанр:Pop, Dance
Страна (Издатель, Каталожный номер): США (SONY Music, 536382 82876)
Аудиокодек: FLAC (*.flac)
Тип рипа: tracks+.cue
Битрейт: lossless
Продолжительность: 00:57:00



Amazon

Tреклист:
01. Oops!... I Did It Again (3:33)
02. ...Baby One More Time (3:31)
03. Im a Slave 4 U (3:25)
04. Born to Make You Happy (3:35)
05. Cinderella (3:40)
06. Brave New Girl (3:28)
07. The Hook Up (3:55)
08. Dont Hang Up (3:59)
09. One Kiss from You (3:24)
10. Anticipating (3:16)
11. What Its Like to Be Me (2:52)
12. My Baby (3:19)
13. Out from Under (3:54)
14. You Got It All (4:10)
15. Showdown (3:17)
16. Thats Where You Take Me (3:34)


Лог создания рипа ▼TextExact Audio Copy V1.0 beta 3 from 29. August 2011

EAC extraction logfile from 21. June 2012, 14:40

Britney Spears / Oops!... I Did It Again: The Best of Britney Spears

Used drive : Optiarc DVD RW AD-7203S Adapter: 4 ID: 0

Read mode : Secure
Utilize accurate stream : Yes
Defeat audio cache : Yes
Make use of C2 pointers : No

Read offset correction : 48
Overread into Lead-In and Lead-Out : Yes
Fill up missing offset samples with silence : Yes
Delete leading and trailing silent blocks : No
Null samples used in CRC calculations : Yes
Used interface : Native Win32 interface for Win NT & 2000
Gap handling : Appended to previous track

Used output format : User Defined Encoder
Selected bitrate : 128 kBit/s
Quality : High
Add ID3 tag : No
Command line compressor : D:Program FilesExact Audio CopyFLACFLAC.EXE
Additional command line options : -V -8 -T "Date=%year%" -T "Genre=%genre%" %source%

TOC of the extracted CD

Track | Start | Length | Start sector | End sector
---------------------------------------------------------
1 | 0:00.00 | 3:33.52 | 0 | 16026
2 | 3:33.52 | 3:31.15 | 16027 | 31866
3 | 7:04.67 | 3:25.48 | 31867 | 47289
4 | 10:30.40 | 3:35.56 | 47290 | 63470
5 | 14:06.21 | 3:40.04 | 63471 | 79974
6 | 17:46.25 | 3:28.70 | 79975 | 95644
7 | 21:15.20 | 3:55.12 | 95645 | 113281
8 | 25:10.32 | 3:59.57 | 113282 | 131263
9 | 29:10.14 | 3:24.36 | 131264 | 146599
 
0c779e8c8b05df10df5b89433f6e2c491f271909(2012) Britney Spears / Oops...I Did It Again - The Best Of Britney Spears (Pop, Dance) [FLAC (tracks+.cue), lossless] (2012) Britney Spears / Oops...I Did It Again - The Best Of Britney Spears (Pop, Dance) [FLAC (tracks+.cue), lossless] " />

Аплоадер: Админ, дата: 21-06-2012, 21:08, торрент скачан: 359 раз

Понравилась раздача? Посмотрите эти:
  • (2013) Britney Spears / Britney Jean (Pop) [MP3, 320/CBR]
  • (2013) Britney Spears / Britney Jean (Japan Deluxe Edition) (Pop) [MP3, 320 ...
  • (2013) Will.I.Am & Britney Spears / Scream & Shout (Pop, House, Electro) [F ...
  • (2010) Zaz / Zaz (Nu jazz, Chanson, Soul) [FLAC (tracks+.cue), lossless]
  • (2009) Dead By Sunrise / Out Of Ashes (Japanese Edition) (Alternative Rock) ...
  • (2011) Виктория - победительница / Victorious (OST) [FLAC (tracks+.cue), lo ...
  • (2011) B.B. King / Icon (Blues) [FLAC (tracks+.cue), lossless]
  • (2012) Yiruma / Stay In Memory (New Age, Instrumental, Neoclassical, Piano) ...
  • (2012) Marconi Union / Different Colours (Post Rock, Downtempo, Ambient) [F ...
  • (2012, Сборник) VA / Saxophone Golden Best (Jazz, Smooth Jazz) [FLAC (track ...
  • (2012) Tomandandy / Resident Evil: Retribution (Score, Soundtrack)[FLAC (tr ...
  • (2012, Сборник) VA / Now Thats What I Call Music! 83 (2 CD) (Pop, Dance) [F ...
  • Britney Spears / Oops!...I did it again Tour. Live at Wembley [2000, Pop, D ...
  • (1999) Muffler / Muffler (Drum & Bass) [FLAC (tracks+.cue), lossless]
  • (2012) Netsky / 2 (Drum & Bass, Dubstep) [FLAC (tracks+.cue), lossless]
  • (2006) The Rasmus / Shot (Single) (Alternative Rock) [FLAC (tracks+.cue), l ...
  • (2011) Дельфин / Существо (Alternative|Experimental) [FLAC (tracks+.cue), l ...
  • (2011) Ленинград / Хна (Rock) [FLAC (tracks+.cue), lossless]
  • (2012) Les Friction / Les Friction (Alt. Rock/Neo-Classical/Orchestral) [FL ...
  • (2011) Phinehas / Thegodmachine (Metalcore) [FLAC (tracks+.cue), lossless]
  • Информация
    Посетители, находящиеся в группе Гости, не могут оставлять комментарии к данной публикации.