вход на сайт

Имя пользователя :
Пароль :

Восстановление пароля Регистрация
(2001, 5 CD Box set) VA / Rock Mantique Top 100 Vol.3 (Pop/Rock) [FLAC (image+.cue), lossless]
Рейтинг:
(голосов: 1)



[img]{THEME}/images/logopost.png[/img]




Исполнитель:Various Artists
Бокс Сет:Rock Mantique Top 100 Vol.3
Издатель (лейбл):Sony Music Entertainment (Номер по каталогу: 88697589352)
Год выпуска:2010
Жанр:Pop/Rock
Формат: FLAC (image+.cue)
Битрейт: lossless
Наличие сканов в содержимом раздачи: да (120dpi, *.jpg)
Log-файл: Присутствует
Продолжительность: 06:28:35

Бокс Сет :
2010 - CD #1 - Rock Mantique Top 100 Vol.3 (FLAC | image+.cue) ▼
Продолжительность:01:19:11

Tреклист:
01. Se bastasse una canzone (Eros Ramazzotti) (5:07)
02. Cuts Both ways (Gloria Estefan) (3:13)
03. Ordinary world (Duran Duran) (4:41)
04. I turn to you (Christina Aguilera) (4:35)
05. Cats in the cradle (Ugly Kid Joe) (4:03)
06. Flying without wings (Westlife) (3:36)
07. Hurts to be in love (Gino Vanelli) (3:42)
08. Keep on lovin you (REO Speedwagon) (3:21)
09. Cry for help (Rick Astley) (4:19)
10. All out of love (Air Supply) (4:02)
11. They dont play our love song anymore (Anita Meyer) (3:42)
12. Therell be sad songs(Billy Ocean) (4:51)
13. Baker street (Gerry Rafferty) (4:04)
14. Cheish (Kool & The Gang) (4:01)
15. Daughters (John Mayer) (3:59)
16. Reunited (Peaches & Herb) (3:30)
17. Smoke gets in your eyes (The Platters) (2:39)
18. Any love (Luther Vandross) (5:00)
19. Thre goes my everything (Elvis Presly) (2:47)
20. Sacrifice (Anouk) (3:59)

Лог создания рипа ▼TextExact Audio Copy V0.99 prebeta 3 from 28. July 2007

EAC extraction logfile from 27. April 2011, 21:43

Various / knuffel rock top 100 vol3

Used drive : PLEXTOR DVDR PX-L890SA Adapter: 2 ID: 0

Read mode : Secure
Utilize accurate stream : Yes
Defeat audio cache : Yes
Make use of C2 pointers : No

Read offset correction : 6
Overread into Lead-In and Lead-Out : No
Fill up missing offset samples with silence : Yes
Delete leading and trailing silent blocks : No
Null samples used in CRC calculations : Yes
Used interface : Native Win32 interface for Win NT & 2000

Used output format : User Defined Encoder
Selected bitrate : 768 kBit/s
Quality : High
Add ID3 tag : No
Command line compressor : C:Program FilesExact Audio CopyFLACFLAC.EXE
Additional command line options : -6 -V -T "ARTIST=%a" -T "TITLE=%t" -T "ALBUM=%g" -T "DATE=%y" -T "TRACKNUMBER=%n" -T "GENRE=%m" -T "COMMENT=%e" %s -o %d


TOC of the extracted CD

Track | Start | Length | Start sector | End sector
---------------------------------------------------------
1 | 0:00.00 | 5:06.45 | 0 | 22994
2 | 5:06.45 | 3:13.21 | 22995 | 37490
3 | 8:19.66 | 4:40.42 | 37491 | 58532
4 | 13:00.33 | 4:35.09 | 58533 | 79166
5 | 17:35.42 | 4:03.14 | &nbs
35b57418319db9ccbcbf6c2a24567ce0533b243e(2001, 5 CD Box set) VA / Rock Mantique Top 100 Vol.3 (Pop/Rock) [FLAC (image+.cue), lossless] (2001, 5 CD Box set) VA / Rock Mantique Top 100 Vol.3 (Pop/Rock) [FLAC (image+.cue), lossless] " />

Аплоадер: Админ, дата: 11-06-2012, 15:55, торрент скачан: 359 раз

Понравилась раздача? Посмотрите эти:
  • (1996) George Michael / Older (1st Press Japan) (Electronic, Pop/Rock) [FLA ...
  • (1996) Константин Никольский / Один взгляд назад (Rock ) [APE (image + .cu ...
  • (2000) The Beatles / 1 (Rock) [FLAC (image+.cue), lossless]
  • (2013) Innes Sibun / Lost In The Wilderness (Blues Rock, Rock) [FLAC (image ...
  • (2013) The Hamburg Blues Band / Friends For A LIVEtime (Blues Rock, Rock) [ ...
  • (2013) Leslie West / Still Climbing (Rock, Hard Rock, Blues Rock) [FLAC (im ...
  • (2013) Paul McCartney / New (Deluxe Edition) (Rock) [FLAC (image,+.cue), lo ...
  • (2013) Elton John / The Diving Board (Rock, Pop Rock) [FLAC (image+.cue), L ...
  • (2013) Govt Mule / Shout! (2CD) (Blues Rock) [FLAC (image+.cue), Lossless]
  • (2011) Daughtry / Break the Spell (Deluxe Edition) (Alt. Rock / Modern Rock ...
  • (2011) Linkin Park / LP Underground 11 (Alternative Rock) [FLAC (Image+cue) ...
  • (Дискография, 1988-2011) Kingdom Come (Hard&Heavy,Glam Metal) [FLAC (image+ ...
  • (2007, 5 CDs Box set) VA / 100 Hits - Rock (Hard Rock, Classic Rock) [FLAC ...
  • (2010) Ravenna / Debrief (Alt. Rock / Christian Rock / Indie) [FLAC (tracks ...
  • (2012) Marconi Union / Different Colours (Post Rock, Downtempo, Ambient) [F ...
  • (2011) Linkin Park / Iridescent (Alternative Rock) [FLAC(image+.cue), lossl ...
  • (2011) Ляпис Трубецкой / Веселые картинки (Rock) [FLAC (tracks+.cue), lossl ...
  • (2011) Scorpions / Comeblack (Hard Rock) [FLAC (tracks+.cue)lossless]
  • (2011) Ленинград / Хна (Rock) [FLAC (tracks+.cue), lossless]
  • (2012) Les Friction / Les Friction (Alt. Rock/Neo-Classical/Orchestral) [FL ...
  • (2012) Anneke van Giersbergen / Everything Is Changing (Alternative Rock/Fe ...
  • (2011) Downhere / On The Altar Of Love (Alternative Rock/Christian Rock) [F ...
  • (2011) Volumes / Via (Progressive Metalcore/Math Metal) [FLAC (image+.cue), ...
  • (2012) Our Lady Peace / Curve (Alternative/Rock) [FLAC (tracks+.cue), lossl ...
  • (2012) Nine Lashes / World We View (Alt.Rock/Alt.Metal/Christian) [FLAC (tr ...
  • Информация
    Посетители, находящиеся в группе Гости, не могут оставлять комментарии к данной публикации.