вход на сайт

Имя пользователя :
Пароль :

Восстановление пароля Регистрация
(1993) Mariah Carey / Music Box (Pop) [APE (image+.cue), lossless]
Рейтинг:
(голосов: 1)



[img]{THEME}/images/logopost.png[/img]





Исполнитель:Mariah Carey
Страна:USA
Альбом:Music Box
Издатель (лейбл): Columbia
Номер по каталогу: CK 53205
Тип альбома:Студийный
Год выпуска:1993
Жанр:Pop
Формат: APE (image+.сue)
Битрейт: lossless
Продолжительность: 00:41:59

Описание:
Мэрайя Кэри (англ. Mariah Carey род. 27 марта 1970 или 1969) — американская поп, ритм-энд-блюз-певица, автор-исполнитель, музыкальный продюсер и актриса. Начала музыкальную карьеру в 1990 году под руководством исполнительного директора Columbia Records Томми Моттолы. Кэри стала первой певицей в США, чьи первые пять синглов возглавили чарт Billboard Hot 100. После брака с Моттолой в 1993 году и записи ряда хитов компания Columbia Records признала певицу самой успешной в истории звукозаписывающей компании.

Wikipedia|YouTube|Facebook|Official page

Tреклист:
01. Dreamlover - 03:54
02. Hero - 04:19
03. Anytime You Need A Friend - 04:26
04. Music Box - 04:57
05. Now That I Know - 04:19
06. Never Forget You - 03:46
07. Without You - 03:36
08. Just To Hold You Once Again - 03:59
09. Ive Been Thinking About You - 04:48
10. All Ive Ever Wanted - 03:51
Лог EAC ▼Text
Exact Audio Copy V1.0 beta 3 from 29. August 2011
Отчёт EAC об извлечении, выполненном 9. ноября 2011, 0:00
Mariah Carey / Music Box
Дисковод: Optiarc DVD RW AD-7241S Adapter: 0 ID: 0
Режим чтения : Достоверность
Использование точного потока : Да
Отключение кэша аудио : Да
Использование указателей C2 : Нет
Коррекция смещения при чтении : 48
Способность читать области Lead-in и Lead-out : Нет
Заполнение пропущенных сэмплов тишиной : Да
Удаление блоков с тишиной в начале и конце : Нет
При вычислениях CRC использовались нулевые сэмплы : Да
Интерфейс : Встроенный Win32-интерфейс для Win NT/2000
Выходной формат : Внутренние WAV-операции
Формат сэмплов : 44.100 Гц; 16 бит; стерео
TOC извлечённого CD
Трек | Старт | Длительность | Начальный сектор | Конечный сектор
---------------------------------------------------------------------
1 | 0:00.00 | 3:54.22 | 0 | 17571
2 | 3:54.22 | 4:19.48 | 17572 | 37044
3 | 8:13.70 | 4:26.27 | 37045 | 57021
4 | 12:40.22 | 4:57.65 | 57022 | 79361
5 | 17:38.12 | 4:19.13 | 79362 | 98799
6 | 21:57.25 | 3:46.37 | 98800 | 115786
7 | 25:43.62 | 3:36.20 | 115787 | 132006
8 | 29:20.07 | 3:59.05 | 132007 | 149936
9 | 33:19.12 | 4:48.33 | 149937 |
affb9c60e3d498be5c981f92b8f9777ba26180eb(1993) Mariah Carey / Music Box (Pop) [APE (image+.cue), lossless] (1993) Mariah Carey / Music Box (Pop) [APE (image+.cue), lossless] " />

Аплоадер: Админ, дата: 29-04-2012, 19:40, торрент скачан: 359 раз

Понравилась раздача? Посмотрите эти:
  • (2000) Lenny Kravitz / Greatest Hits (Rock, Funk) [FLAC (image+.cue), lossl ...
  • (Дискография, 1990-2011) Mariah Carey (Pop, R&B) [MP3, 320/CBR]
  • (1989, 1991, 1992, 1993) Nirvana — 4 альбома (Grunge) [WavPack (image+.cue) ...
  • (дискография, 1983-2008) MADONNA (pop / dance) [WavPack (image+.cue) lossle ...
  • (2007) СТАС МИХАЙЛОВ - Лучшие песни (Шансон) [APE (image + .cue) lossless]
  • (2000) Tic Tac Toe / Ist der Ruf erst ruiniert... (Rap,Hip-hop) [Lossless, ...
  • (2007) Morandi / N3xt (Pop) [APE, (image + .cue), lossless]
  • (2010) ST1M / Октябрь (Rap) [APE(image+.cue), lossless]
  • (2006) Батырхан Шукенов/ Отан Ана (Pop) [FLAC (image+.cue) lossless]
  • (2010) ДиДюЛя / Аромат (flamenco, instrumental, folk) [APE (image + .cue), ...
  • (1985) BABYS GANG / Challenger (Pop,Italo Disco) [APE(image+.cue)lossless] ...
  • (2011) Within Temptation / The Unforgiving (Symphonic Gothic Metal) [FLAC ( ...
  • (Дискография) The Doors (Classic Rock) [FLAC(tracks,image+.cue),APE(image+. ...
  • (2005) плюм-Бум / Чистая правда (Funk, Reggae, Pop-Punk) [APE(image+.cue), ...
  • (2011) АукцЫон / Юла (Rock) [APE (image+.cue), lossless]
  • (2003) THE BLACK EYED PEAS / Elephunk (RnB) [Ape (image+.cue), lossless]
  • (2009) Rihanna / Rated R (R`n`B) [APE (image+.cue)]
  • ( 2001) Воскресение / Звездная коллекция (Rock) [FLAC (image+.cue) lossless ...
  • (1993) Любовь Успенская / Любимый (шансон) [APE (image+.cue), lossless]
  • (2009) Челси / Точка возврата (Pop) [APE (image+.cue), lossless]
  • (2009, Cборник) Madonna / Greatest Hits [CD1 + CD2] (Pop) [APE (image+.cue) ...
  • (2011) N1NT3NDO / N1NT3NDO (Rap) [APE (image+.сue), lossless]
  • (1995) Yaki-Da / Pride (Pop, Eurodance) [FLAC (image+.сue), lossless]
  • (2004) Ex-Сектор Газа / Огненный рай (Punk-Rock) [FLAC (image+.cue), lossle ...
  • (2008) Студия 80 / Придуманный Мир (Pop) [FLAC (image+.cue), lossless]
  • Информация
    Посетители, находящиеся в группе Гости, не могут оставлять комментарии к данной публикации.