вход на сайт

Имя пользователя :
Пароль :

Восстановление пароля Регистрация
(Сборник, 1971-1984) Demis Roussos / 12 CD (Pop) [FLAC (image+.cue), lossless]
Рейтинг:
(голосов: 1)



[img]{THEME}/images/logopost.png[/img]



Сборник 1971-1984 12 CD
Исполнитель: Demis Roussos
Страна: Greece
Жанр: Pop
Формат: FLAC (image+.cue)
Битрейт: Lossless
Лог-файлы: Присутствуют
Наличие сканов в содержимом раздачи: Да
Продолжительность: 07:44:23

Об исполнителе: Артомиос (Демис) Вентоурис Руссос родился 15 июня 1946 г., в Александрии (Египет), будучи первым сыном своих родителей — Ольги и Георга.
Во время Суэцкого кризиса, достаточно хорошо обеспеченная семья Руссос, со своим вторым сыном Костасом покинули Египет, оставив там свое имущество и вернулись на родину своих предков — в Грецию.

▼1971 Fire And Ice (Flac/image+.cue) ▼

Продолжительность: 00:42:39

Tреклист:
[04:31] 01. Demis Roussos - Fire And Ice
[03:25] 02. Demis Roussos - She Game Up From North
[03:36] 03. Demis Roussos - Good Days Have Gone
[03:29] 04. Demis Roussos - We Shall Damce
[02:47] 05. Demis Roussos - i Know Ill Do It Again
[03:46] 06. Demis Roussos - On The Greek Side Of Muy Mind
[02:09] 07. Demis Roussos - End Of The Line
[03:45] 08. Demis Roussos - My Blue Ships A-Sailin
[04:12] 09. Demis Roussos - Mountains Beyond
[04:43] 10. Demis Roussos - O My Friends Youve Been Untrue To Me
[04:17] 11. Demis Roussos - Lord Of The Flies
[01:55] 12. Demis Roussos - Without You

Отчет EAC ▼TextExact Audio Copy V0.99 prebeta 5 from 4. May 2009

EAC extraction logfile from 12. December 2011, 22:24

Demis Roussos / Fire And Ice

Used drive : PIONEER DVD-RW DVR-109 Adapter: 0 ID: 1

Read mode : Secure
Utilize accurate stream : Yes
Defeat audio cache : Yes
Make use of C2 pointers : No

Read offset correction : 48
Overread into Lead-In and Lead-Out : No
Fill up missing offset samples with silence : Yes
Delete leading and trailing silent blocks : No
Null samples used in CRC calculations : Yes
Used interface : Installed external ASPI interface

Used output format : User Defined Encoder
Selected bitrate : 128 kBit/s
Quality : High
Add ID3 tag : No
Command line compressor : C:Program FilesExact Audio CopyFlacflac.exe
Additional command line options : -8 -V -T "ARTIST=%a" -T "TITLE=%t" -T "ALBUM=%g" -T "DATE=%y" -T "TRACKNUMBER=%n" -T "GENRE=%m" -T "COMMENT=EAC FLAC -8" %s


TOC of the extracted CD

Track | Start | Length | Start sector | End sector
---------------------------------------------------------
1 | 0:00.00 | 4:33.58 | 0 | 20532
2 | 4:33.58 | 3:27.71 | 20533 | 36128
3 | 8:01.54 | 3:38.46 | 36129 | 52524
4 | 11:40.25 | 3:31.43 | 52525 | 68392
5 | 15:11.68 | 2:49.05 | 68393 | 81072
6 | 18:00.73 | 3:48.17 | 81073 | 98189
62d87243ea9060a7d7d12e6dd49ba1c8f6c9b9b2(Сборник, 1971-1984) Demis Roussos / 12 CD (Pop) [FLAC (image+.cue), lossless] (Сборник, 1971-1984) Demis Roussos / 12 CD (Pop) [FLAC (image+.cue), lossless] " />

Аплоадер: Админ, дата: 22-04-2012, 22:22, торрент скачан: 359 раз

Понравилась раздача? Посмотрите эти:
  • (1996) George Michael / Older (1st Press Japan) (Electronic, Pop/Rock) [FLA ...
  • (2013) Buddy Guy / Rhythm & Blues (2CD) (Blues) [FLAC (image+.cue), Lossles ...
  • (2013) Paul McCartney / New (Deluxe Edition) (Rock) [FLAC (image,+.cue), lo ...
  • Demis Roussos / The Phenomenon [2000, Pop, DVD]
  • (2008) The Magic Of Nomads / Bulbul Zaman (folk-ethnic / smooth jazz / inst ...
  • (2010) Zaz / Zaz (Nu jazz, Chanson, Soul) [FLAC (tracks+.cue), lossless]
  • (2011) The Prodigy / Worlds On Fire (Big Beat, Rave) [FLAC (image+.cue), lo ...
  • (2011) Linkin Park / LP Underground 11 (Alternative Rock) [FLAC (Image+cue) ...
  • (Дискография, 1988-2011) Kingdom Come (Hard&Heavy,Glam Metal) [FLAC (image+ ...
  • (2011) B.B. King / Icon (Blues) [FLAC (tracks+.cue), lossless]
  • (2008-2012, Сборник) VA / The Twilight Saga (5 CD) (Soundtrack) [FLAC (trac ...
  • (2012, Сборник) VA / Новогодняя тридцатка 2013 (Шансон) [FLAC (image+.cue), ...
  • (2011) Linkin Park / Iridescent (Alternative Rock) [FLAC(image+.cue), lossl ...
  • (2011) Gandharva / Lord of the Universe (New Age, Classical, Erhu) [FLAC (t ...
  • (2011) Ленинград / Хна (Rock) [FLAC (tracks+.cue), lossless]
  • (2009) Mystica / Second Dive (Trance, Ambient & Downtempo, Chill Out) [FLAC ...
  • (2012) Anneke van Giersbergen / Everything Is Changing (Alternative Rock/Fe ...
  • (2011) Volumes / Via (Progressive Metalcore/Math Metal) [FLAC (image+.cue), ...
  • (2012) Soulfly / Enslaved [Deluxe Edition] (Groove Metal/Thrash Metal) [FLA ...
  • (2012) Game Over / For Humanity (Thrash Metal) [FLAC (image+.cue), lossless ...
  • Информация
    Посетители, находящиеся в группе Гости, не могут оставлять комментарии к данной публикации.