вход на сайт

Имя пользователя :
Пароль :

Восстановление пароля Регистрация
(2012) Сергей Васюта и Сладкий Сон / На белом покрывале января... (Pop) [Flac (image+.сue), lossless]
Рейтинг:
(голосов: 1)



[img]{THEME}/images/logopost.png[/img]



Исполнитель: Сергей Васюта и Сладкий Сон
Альбом: На белом покрывале января...
Страна: Россия
Тип альбома: Студийный
Год выпуска: 2012
Жанр: Pop
Формат: Flac (image+.сue)
Битрейт: lossless
Лог-файл: Присутствует
Продолжительность: 01:12:33
Tреклист - На белом покрывале января... ▼1. Сергей Васюта и Сладкий Сон - На белом покрывале января (3:42)
2. Сергей Васюта и Сладкий Сон - Я тебя девочка помню (3:51)
3. Сергей Васюта и Сладкий Сон - Чёрная гроза (4:10)
4. Сергей Васюта и Сладкий Сон - Снег на розах (4:30)
5. Сергей Васюта и Сладкий Сон - Я не верю (4:24)
6. Сергей Васюта и Сладкий Сон - Ты сказала (4:41)
7. Сергей Васюта и Сладкий Сон - Майские зори (3:38)
8. Сергей Васюта и Сладкий Сон - Босоногая девчонка (4:08)
9. Сергей Васюта и Сладкий Сон - Алёна (5:17)
10. Сергей Васюта и Сладкий Сон - Алые розы (5:46)
11. Сергей Васюта и Сладкий Сон - Моя любовь (new) (4:11)
12. Сергей Васюта и Сладкий Сон - Кораблик (4:33)
13. Сергей Васюта и Сладкий Сон - Белые ночи (4:04)
14. Сергей Васюта и Сладкий Сон - Не грусти (4:05)
15. Сергей Васюта и Сладкий Сон - Белый цвет (new) (4:43)
16. Сергей Васюта и Сладкий Сон - Улетели птицы (2:41)
17. Сергей Васюта и Сладкий Сон - Маленькое чудо (Remix’2012) (4:01)log создания рипа ▼Exact Audio Copy V1.0 beta 3 from 29. August 2011

EAC extraction logfile from 18. April 2012, 15:21

Сергей Васюта и Сладкий Сон / На белом покрывале января...

Used drive: PIONEER DVD-RWDVR-212 Adapter: 8ID: 0

Read mode : Secure
Utilize accurate stream : Yes
Defeat audio cache: Yes
Make use of C2 pointers : No

Read offset correction: 48
Overread into Lead-In and Lead-Out: No
Fill up missing offset samples with silence : Yes
Delete leading and trailing silent blocks : No
Null samples used in CRC calculations : Yes
Used interface: Installed external ASPI interface

Used output format : Internal WAV Routines
Sample format: 44.100 Hz; 16 Bit; Stereo

TOC of the extracted CD

Track | Start|Length| Start sector | End sector
---------------------------------------------------------
1|0:00.00 |3:42.02 | 0|16651
2|3:42.02 |3:51.59 | 16652|34035
3|7:33.61 |4:10.20 | 34036|52805
4| 11:44.06 |4:30.19 | 52806|73074
5| 16:14.25 |4:24.44 | 73075|92918
6| 20:38.69 |4:41.63 | 92919| 114056
7| 25:20.57 |
aa4e0af3e7a05a4c9805c7cd6dbf25281a7002be(2012) Сергей Васюта и Сладкий Сон / На белом покрывале января... (Pop) [Flac (image+.сue), lossless] (2012) Сергей Васюта и Сладкий Сон / На белом покрывале января... (Pop) [Flac (image+.сue), lossless] " />

Аплоадер: Админ, дата: 21-04-2012, 01:09, торрент скачан: 359 раз

Понравилась раздача? Посмотрите эти:
  • Artic feat. Asti / Сладкий сон [2013, Dance, Pop, Master]
  • Artic ft. Asti / Сладкий Сон [2013, Pop, WebRip]
  • 2001,OST) (VA-Сладкий ноябрь/ Sweet November) (MP3,[email protected]) [WazZzuP]
  • (2009,сборник) Вечеринка в стиле Ласковый Май (Pop) [MP3 256CBR]
  • (2008, сборник) VA / Золотые песни 90х - Дискотека 50/50 (Pop) [MP3, 128/CB ...
  • (2011, сборник) VA / Вечеринка с Игорьком (Pop) [Mp3, 320/CBR]
  • (2010) Сергей Трофимов (Трофим) / Всё не важно (Шансон) [FLAC(image+.cue), ...
  • (2010) Ассаи / Лифт (Rap) [FLAC(image+.cue), lossless]
  • (2010) Zdob si Zdub / Белое вино / Красное вино (folk rock, folk punk, hard ...
  • (2008) Юрий Наумов / Рок как будто Блюз (Blues) [FLAC (Image+.cue), lossles ...
  • (2012, сборник) VA | Горячая 20. Осень-Зима 2012-13 (Pop) [FLAC (image+.cue ...
  • (2006) (Караоке) Мастер караоке. Звезды эстрады 80-х (100 песен)
  • (2010, сборник) VA / Дискотека Адмирал - Disco 80/90 по-новому! (POP) [MP3, ...
  • (2011) Yanni / Truth Of Touch (New Age) [FLAC (image+ .cue),lossless]
  • (2011) Стас Михайлов / Только ты (Шансон) [Flac(image+.cue)Lossless]
  • (2000) VASЮТА & Сладкий сон / Лучшее в ремиксах (Pop, Dance) [MP3, 256/CBR] ...
  • (2011) Ленинград / Хна (Rock) [FLAC (tracks+.cue), lossless]
  • (2012, сборник) VA / Золотые Хиты Русских Дискотек на Ретро FM (Pop, Dance) ...
  • (2012, Сборник) Сергей Васюта и Сладкий Сон / На белом покрывале января... ...
  • (2012) Сергей Трофимов / Аты-Баты (Шансон) [mp3, 320/CBR]
  • Обои для рабочего стола/Еда: Сладкий стол/JPG/1920x1200,2560x1600 /45 шт.]
  • Дима Билан и Ева / Малыш [2012, Рop, WebRip]
  • Дима Билан и Ева / Малыш [2012, Рop, WebRip]
  • (2012, Сборник) VA / Хиты вчерашнего дня (Disco, Pop, Dance) [MP3 (tracks) ...
  • Сладкий ужас (документальный, познавательный, 28.11. 2012) [SATRip, не треб ...
  • Информация
    Посетители, находящиеся в группе Гости, не могут оставлять комментарии к данной публикации.