вход на сайт

Имя пользователя :
Пароль :

Восстановление пароля Регистрация
(2004, сборник ) VA / Фестиваль Авторадио - Дискотека 80-Х часть 1 (РОР) [APE (image+.сue), lossless]
Рейтинг:
(голосов: 1)



[img]{THEME}/images/logopost.png[/img]



Сборник зарубежных хитов
Исполнитель: VA
Название сборника: Фестиваль Авторадио - Дискотека 80-Х часть 1
Год выпуска: 2004
Жанр: Pop
Формат: APE (image+.сue)
Битрейт: lossless
Продолжительность: 01:19:26

Tреклист:
01 - Modern Talking / Cheri Cheri Lady [3:48]
02 - Bad Boys Blue / Youre A Woman [3:57]
03 - Ricchi E Poveri / Mamma Maria [2:57]
04 - Toto Cutugno / Litaliano [3:55]
05 - Afric Simone / Hafanana [2:56]
06 - Baccara / Sorry, Im A Lady [3:39]
07 - Blue System / Magic Symphony [3:37]
08 - Al Bano & Romina Power / Felicita [3:13]
09 - Gazebo / Lunatic [3:59]
10 - Amanda Lear / Queen of Chinatown [4:16]
11 - Samanta Fox / Nothings Gonna Stop Me Now [3:46]
12 - Silent Circle / Stop the Rain in the Night [5:35]
13 - Bad Boys Blue / Kiss You All Over, Baby [4:35]
14 - Modern Talking / Geronimos Cadillac [3:19]
15 - Radiorama / Yeti [6:06]
16 - Gazebo / Masterpiece [4:14]
17 - Baccara / Yes Sir, I Can Boogie [4:36]
18 - Arabesque / Zanzibar [3:40]
19 - Londonbeat / Ive Been Thinking About You [3:51]
20 - Afric Simone / Todo Pasara Maria [3:14]

Лог создания рипа ▼TextExact Audio Copy V0.99 prebeta 5 from 4. May 2009

Отчёт EAC об извлечении, выполненном 15. октября 2009, 19:09

Various / Дискотека 80-х. Часть 1

Дисковод: HL-DT-STDVD-RAM GH22NS30 Adapter: 3 ID: 0

Режим чтения : Достоверность
Использование точного потока : Да
Отключение кэша аудио : Да
Использование указателей C2 : Нет

Коррекция смещения при чтении : 102
Способность читать области Lead-in и Lead-out : Нет
Заполнение пропущенных сэмплов тишиной : Да
Удаление блоков с тишиной в начале и конце : Нет
При вычислениях CRC использовались нулевые сэмплы : Да
Интерфейс : Установленный внешний ASPI-интерфейс

Выходной формат : Внутренние WAV-операции
Формат сэмплов : 44.100 Гц; 16 бит; стерео


TOC извлечённого CD

Трек | Старт | Длительность | Начальный сектор | Конечный сектор
---------------------------------------------------------------------
1 | 0:00.00 | 3:48.74 | 0 | 17173
2 | 3:48.74 | 3:57.49 | 17174 | 34997
3 | 7:46.48 | 2:57.40 | 34998 | 48312
4 | 10:44.13 | 3:55.46 | 48313 | 65983
5 | 14:39.59 | 2:56.58 | 65984 | 79241
6 | 17:36.42 | 3:39.69 | 79242 | 95735
7 | 21:16.36 | 3:37.06 | 95736 | 112016
8 | 24:53.42 | 3:13.70 | 112017 | 126561
&n
e0ff040efb135a959ce38b4d9b38aeafec4648da(2004, сборник ) VA / Фестиваль Авторадио - Дискотека 80-Х часть 1 (РОР) [APE (image+.сue), lossless] (2004, сборник ) VA / Фестиваль Авторадио - Дискотека 80-Х часть 1 (РОР) [APE (image+.сue), lossless] " />

Аплоадер: Админ, дата: 21-03-2012, 13:18, торрент скачан: 359 раз

Понравилась раздача? Посмотрите эти:
  • (1992) Smokie / The Story Of Smokie (2CD Set Germany, BMG, Ariola) (Rock) [ ...
  • (2009) Воскресение / The Best (Rock ) [APE (image + .cue), lossless]
  • (2012) Григорий Лепс / Полный вперёд (Шансон) [FLAC (image+.cue), Lossless ...
  • (2004) ELLA FITZGERALD - The Best Of Ella Fitzgerald - Summertime(Vocal Jaz ...
  • (2000) Tic Tac Toe / Ist der Ruf erst ruiniert... (Rap,Hip-hop) [Lossless, ...
  • (2004) VA / Инструментальная музыка - Лучшие мировые хиты (Instrumental) [A ...
  • (2009) Игорь Крутой и Дмитрий Хворостовский / Дежавю (Opera / Classical / I ...
  • (1994) Joy / Grand Collection (EuroDisco) [FLAC (image+.cue) lossless]
  • (2010) ST1M / Октябрь (Rap) [APE(image+.cue), lossless]
  • (2010) ДиДюЛя / Аромат (flamenco, instrumental, folk) [APE (image + .cue), ...
  • (2011) Within Temptation / The Unforgiving (Symphonic Gothic Metal) [FLAC ( ...
  • (2011) АукцЫон / Юла (Rock) [APE (image+.cue), lossless]
  • (2011) Modern Talking / Peace On Earth - Winter In My Heart (Disco, Christm ...
  • (2003) THE BLACK EYED PEAS / Elephunk (RnB) [Ape (image+.cue), lossless]
  • (2009) Rihanna / Rated R (R`n`B) [APE (image+.cue)]
  • (2009) Guf / Дома (Rap) [APE (image+.cue)]
  • (2007, сборник), VA / Авторадио Дискотека 80-х (pop) [mp3, 256/CBR]
  • (2009, Cборник) Madonna / Greatest Hits [CD1 + CD2] (Pop) [APE (image+.cue) ...
  • (2004) Ex-Сектор Газа / Огненный рай (Punk-Rock) [FLAC (image+.cue), lossle ...
  • (2008) Студия 80 / Придуманный Мир (Pop) [FLAC (image+.cue), lossless]
  • Информация
    Посетители, находящиеся в группе Гости, не могут оставлять комментарии к данной публикации.