вход на сайт

Имя пользователя :
Пароль :

Восстановление пароля Регистрация
(2007) Erasure / Live At The Royal Albert Hall (2xCD) (Synth-pop) [FLAC (tracks+.сue), lossless]
Рейтинг:
(голосов: 1)



[img]{THEME}/images/logopost.png[/img]




Исполнитель:Erasure
Страна: United Kingdom
Альбом:Live At The Royal Albert Hall (2xCD)
Тип альбома:Live
Год выпуска:2007
Жанр:Synth-pop
Формат: FLAC (tracks+.сue)
Битрейт: lossless
Log-файл: Присутствует
Страна-производитель диска: Europe
Наличие сканов в содержимом раздачи: да
Продолжительность: 01:32:00

Описание:
Erasure — британский музыкальный дуэт в жанре электронной музыки, вышедший на сцену в 1985. Стилистически дуэт относят к синти-попу.

• Винс Кларк (ранее играл в Depeche Mode, Yazoo)
• Энди Белл
Wikipedia|Official page
Tреклист:

CD1:
01. Sunday Girl (04:47)
02. Blue Savannah (04:22)
03. Drama (04:29)
04. I Could Fall In Love With You (04:39)
05. Fly Away (03:42)
06. Breathe (04:20)
07. Storm In A Teacup (04:40)
08. Chains Of Love (03:53)
09. Breath Of Life (04:50)
10. Love To Hate You (04:20)
11. Sucker For Love (04:02)
12. Jacques Cousteau (03:44)
CD2:
01. Victim Of Love (03:56)
02. When A Lover Leaves You (04:00)
03. Ship Of Fools (04:07)
04. Chorus (05:19)
05. Sometimes (04:02)
06. A Little Respect (05:03)
07. Oh LAmour (03:51)
08. Glass Angel (06:10)
09. Stop! (03:37)
Лог создания рипа CD1 ▼TextExact Audio Copy V0.99 prebeta 4 from 23. January 2008

EAC extraction logfile from 30. March 2010, 15:43

ERASURE / Live @ The Royal Albert Hall CD1

Used drive : ASUS DRW-20B1LT Adapter: 3 ID: 0

Read mode : Secure
Utilize accurate stream : Yes
Defeat audio cache : Yes
Make use of C2 pointers : No

Read offset correction : 6
Overread into Lead-In and Lead-Out : No
Fill up missing offset samples with silence : Yes
Delete leading and trailing silent blocks : No
Null samples used in CRC calculations : Yes
Used interface : Native Win32 interface for Win NT & 2000
Gap handling : Appended to previous track

Used output format : User Defined Encoder
Selected bitrate : 768 kBit/s
Quality : High
Add ID3 tag : No
Command line compressor : C:Program FilesExact Audio CopyFLACFLAC.EXE
Additional command line options : -8 -V -T "ARTIST=%a" -T "TITLE=%t" -T "ALBUM=%g" -T "DATE=%y" -T "TRACKNUMBER=%n" -T "GENRE=%m" -T "COMMENT=EAC FLAC -8" %s


TOC of the extracted CD

Track | Start | Length | Start sector | End sector
---------------------------------------------------------
1 | 0:00.13 | 4:47.13 | 13 | 21550
2 | 4:47.26 | 4:22.24 | 21551 | 41224
3 | 9:09.50 | 4:29.06 | 41225 | 61405
4 | 13:38.56 | 4:39.44 | 61406 | 82374
5 | 18:18.25 | 3:42.16 | 82375 &n
3600df4ccfd2e8ced91feb9e6e221e161701eb49(2007) Erasure / Live At The Royal Albert Hall (2xCD) (Synth-pop) [FLAC (tracks+.сue), lossless] (2007) Erasure / Live At The Royal Albert Hall (2xCD) (Synth-pop) [FLAC (tracks+.сue), lossless] " />

Аплоадер: Админ, дата: 23-02-2012, 22:03, торрент скачан: 359 раз

Понравилась раздача? Посмотрите эти:
  • (2013) Prodigy & The Alchemist / Albert Einstein (Underground Hip-Hop) [FLA ...
  • (2013) A$AP Rocky | Long. Live. ASAP (Deluxe Edition) (Rap|Hip-Hop) [FLAC ( ...
  • (2002, Сборник) VA / Chill Out Edition (2xCD) (Lounge, Chillout, Downtempo, ...
  • (2010) Zaz / Zaz (Nu jazz, Chanson, Soul) [FLAC (tracks+.cue), lossless]
  • (2011) Adele / 21 (Jazz, Lounge, Easy Listening) [FLAC (tracks + .cue), los ...
  • (2011) Foster the People / Torches [Best Buy Exclusive Edition] (Indie / El ...
  • (2011) Виктория - победительница / Victorious (OST) [FLAC (tracks+.cue), lo ...
  • (2011) B.B. King / Icon (Blues) [FLAC (tracks+.cue), lossless]
  • (2012) Yiruma / Stay In Memory (New Age, Instrumental, Neoclassical, Piano) ...
  • (2012) Marconi Union / Different Colours (Post Rock, Downtempo, Ambient) [F ...
  • (2012) Tomandandy / Resident Evil: Retribution (Score, Soundtrack)[FLAC (tr ...
  • (2012) Sally Night / Love For Sale (Vocal Jazz) [FLAC (tracks+.cue), lossle ...
  • (2011) Chris Brown / F.A.M.E. (Deluxe Edition) (R&B) [FLAC (tracks+.cue), l ...
  • (1999) Muffler / Muffler (Drum & Bass) [FLAC (tracks+.cue), lossless]
  • (2006) The Rasmus / Shot (Single) (Alternative Rock) [FLAC (tracks+.cue), l ...
  • (2011) Ляпис Трубецкой / Веселые картинки (Rock) [FLAC (tracks+.cue), lossl ...
  • (2011) Scorpions / Comeblack (Hard Rock) [FLAC (tracks+.cue)lossless]
  • (2011) Дельфин / Существо (Alternative|Experimental) [FLAC (tracks+.cue), l ...
  • (2011) Ленинград / Хна (Rock) [FLAC (tracks+.cue), lossless]
  • (2012) Les Friction / Les Friction (Alt. Rock/Neo-Classical/Orchestral) [FL ...
  • (2011) SeeS / The enD (Progressive/Math Metal) [FLAC (tracks+.cue), lossles ...
  • (2011) Downhere / On The Altar Of Love (Alternative Rock/Christian Rock) [F ...
  • (2012) Bleeding Through / The Great Fire (Symphonic Metalcore/Hardcore) [FL ...
  • (2011) Phinehas / Thegodmachine (Metalcore) [FLAC (tracks+.cue), lossless]
  • (2012) For Today / Immortal (Metalcore, Hardcore, Christian) [FLAC (tracks+ ...
  • Информация
    Посетители, находящиеся в группе Гости, не могут оставлять комментарии к данной публикации.