вход на сайт

Имя пользователя :
Пароль :

Восстановление пароля Регистрация
(2011) Modern Talking / Peace On Earth - Winter In My Heart (Disco, Christmas) [APE(image+.cue), lossless]
Рейтинг:
(голосов: 1)



[img]{THEME}/images/logopost.png[/img]




Исполнитель:Modern Talking
Страна: Germany
Альбом:Peace On Earth - Winter In My Heart
Издатель (Лейбл) : DE (Sony music, 886979048225)
Тип альбома:Compilation
Год выпуска:2011
Жанр:Disco, Christmas
Формат: APE(image+.cue)
Битрейт: lossless
Log-файл: Присутствует
Продолжительность: 01:16:15
Наличие сканов в содержимом раздачи: да (PNG, 17.6 MB)

Об издании: Сборник 2011 года, выпущенный перед Рождеством, состоящий из медленных композиций.


Tреклист:
01. Cant Let You Go - 4:23
02. Just Close Your Eyes - 4:18
03. Give Me Peace On Earth - 4:13
04. All I Have - 4:21
05. Keep Love Alive - 3:26
06. We Still Have Dreams - 3:07
07. One In A Million - 3:43
08. Dont Play With My Heart - 3:28
09. Rain In My Heart - 3:48
10. I Will Follow You - 4:01
11. Wild Wild Water - 4:19
12. How You Mend A Broken Heart - 4:16
13. Its Your Smile - 3:32
14. Stranded In The Middle Of Nowhere - 4:32
15. Why Did You Do It Just Tonight - 4:23
16. Lady Lai - 4:58
17. Blinded By Your Love - 3:59
18. Like A Hero - 3:47
19. Dont Let It Get You Down - 3:41
20. Its Christmas - 3:53

Отчет EAC ▼ Text
Exact Audio Copy V0.99 prebeta 3 from 28. July 2007

Отчёт EAC об извлечении, выполненном 4. января 2012, 8:29

Modern Talking / Peace On Earth - Winter Of My Heart

Дисковод: PIONEER DVD-RW DVR-112D Adapter: 1 ID: 0

Режим чтения : Достоверность
Использование точного потока : Да
Отключение кэша аудио : Да
Использование указателей C2 : Нет

Коррекция смещения при чтении : 48
Способность читать области Lead-in и Lead-out : Нет
Заполнение пропущенных сэмплов тишиной : Да
Удаление блоков с тишиной в начале и конце : Нет
При вычислениях CRC использовались нулевые сэмплы : Да
Интерфейс : Встроенный Win32-интерфейс для Win NT/2000

Выходной формат : Внутренние WAV-операции
Формат сэмплов : 44.100 Гц; 16 бит; стерео


TOC извлечённого CD

Трек | Старт | Длительность | Начальный сектор | Конечный сектор
---------------------------------------------------------------------
1 | 0:00.00 | 4:23.14 | 0 | 19738
2 | 4:23.14 | 4:18.34 | 19739 | 39122
3 | 8:41.48 | 4:12.66 | 39123 | 58088
4 | 12:54.39 | 4:21.27 | 58089 | 77690
5 | 17:15.66 | 3:25.61 | 77691 | 93126
6 | 20:41.52 | 3:07.27 | 93127 | 107178
7 | 23:49.04 | 3:42.48 | 107179 | 123876
8 | 27:31.52 | 3:27.55 |
804a322d28d3fe0a88f9c71a40db3d588fe7490d(2011) Modern Talking / Peace On Earth - Winter In My Heart (Disco, Christmas) [APE(image+.cue), lossless] (2011) Modern Talking / Peace On Earth - Winter In My Heart (Disco, Christmas) [APE(image+.cue), lossless] " />

Аплоадер: Админ, дата: 5-01-2012, 23:05, торрент скачан: 359 раз

Понравилась раздача? Посмотрите эти:
  • (2000) a-ha / Minor Earth | Major Sky (Alternative Rock, Synth-pop ) [FLAC ...
  • (1995) Corona / The Rhythm Of The Night (Japan) (Eurodance) [FLAC (image+. ...
  • (Полная Дискография) MODERN TALKING (Pop) [mp3, 160-320 Кбит/c/CBR]
  • (Дискография) Modern Talking /1985 2003/ (Pop) [MP3,320/CBR]
  • (2010, сборник) Modern Talking / 25 Years Of Disco-Pop (Pop) [mp3, 320/CBR] ...
  • (2007) Morandi / N3xt (Pop) [APE, (image + .cue), lossless]
  • (Дискография) Modern Talking (EuroDisco / Pop) [FLAC (image+.cue) lossless] ...
  • (1998) Pharao / The Return (Eurodance) [APE (image+.cue)]
  • (1981) Boney M / Christmas Album (UnRemaster) (Disco) [APE (image + .cue), ...
  • (1984) Boney M / Ten Thousand Lightyears (Disco) [APE (image+.cue) lossles ...
  • (1985) BABYS GANG / Challenger (Pop,Italo Disco) [APE(image+.cue)lossless] ...
  • (2011) Within Temptation / The Unforgiving (Symphonic Gothic Metal) [FLAC ( ...
  • (2004) Genesis / Platinum Collection (Art Rock) [FLAC (image+.cue), lossles ...
  • (2011) Blues Cousins / KGB Blues (Blues Rock) [FLAC (image+.cue), lossless] ...
  • (2011) АукцЫон / Юла (Rock) [APE (image+.cue), lossless]
  • (2004, сборник ) VA / Фестиваль Авторадио - Дискотека 80-Х часть 1 (РОР) [ ...
  • (2003) THE BLACK EYED PEAS / Elephunk (RnB) [Ape (image+.cue), lossless]
  • (2011) N1NT3NDO / N1NT3NDO (Rap) [APE (image+.сue), lossless]
  • (1995) Yaki-Da / Pride (Pop, Eurodance) [FLAC (image+.сue), lossless]
  • (2000) Парк Горького (Gorky Park) / The Best (Glam Metal/Hard Rock) [FLAC ...
  • Информация
    Посетители, находящиеся в группе Гости, не могут оставлять комментарии к данной публикации.