вход на сайт

Имя пользователя :
Пароль :

Восстановление пароля Регистрация
(Дискография, 1985 - 2009) Sandra (Pop) [APE (image+.cue), FLAC (image+.cue), lossless]
Рейтинг:
(голосов: 1)



[img]{THEME}/images/logopost.png[/img]




Дискография
Исполнитель:Sandra
Жанр:Pop
Формат: APE (image+.cue), FLAC (image+.cue)
Битрейт: lossless
Продолжительность: 11:51:11
Страна: Германия.

Об исполнителе: Сандра Крету (нем. Sandra Cretu; урожд. Сандра Анн Лауэр; род. 18 мая 1962, Саарбрюккен) — немецкая поп-певица. После распада диско-группы «Arabesque», в которой в 1979—1984 гг. Сандра была ведущей вокалисткой, певица начала успешную сольную карьеру, став одной из самых популярных певиц на европейской эстраде второй половины 1980-х — начала 1990-х. В 1990-е годы Сандра также принимала участие в проекте «Enigma», созданном её мужем Мишелем Крету.

Wikipedia|YouTube|Facebook|Official page

Студийные:
▼1985 - The Long Play (APE (image+.cue)) ▼


Продолжительность: 00:36:21

Tреклист:
[05:18] 01. Sandra - In The Heat Of The Night
[03:43] 02. Sandra - On The Tray (Seven Years)
[03:11] 03. Sandra - Little Girl
[05:55] 04. Sandra - You And I
[05:54] 05. Sandra - (Ill Never Be) Maria Magdalena
[04:51] 06. Sandra - Heartbeat
[03:22] 07. Sandra - Sisters And Brothers
[04:02] 08. Sandra - Change Your Mind

Лог проверки качества ▼Text
Exact Audio Copy V0.99 prebeta 3 from 28. July 2007
EAC extraction logfile from 19. December 2008, 19:53
Sandra / The Long Play
Used drive : TSSTcorpCDDVDW SH-S203B Adapter: 2 ID: 0
Read mode : Secure
Utilize accurate stream : Yes
Defeat audio cache : Yes
Make use of C2 pointers : No
Read offset correction : 6
Overread into Lead-In and Lead-Out : No
Fill up missing offset samples with silence : Yes
Delete leading and trailing silent blocks : No
Null samples used in CRC calculations : Yes
Used interface : Native Win32 interface for Win NT & 2000
Used output format : Monkeys Audio Lossless Encoder v3.99 DLL
Sample format : Normal Lossless Compression
TOC of the extracted CD
Track | Start | Length | Start sector | End sector
---------------------------------------------------------
1 | 0:00.33 | 5:20.70 | 33 | 24102
2 | 5:21.28 | 3:46.40 | 24103 | 41092
3 | 9:07.68 | 3:13.17 | 41093 | 55584
4 | 12:21.10 | 6:00.58 | 55585 | 82642
5 | 18:21.68 | 5:57.15 | 82643 | 109432
6 | 24:19.08 | 4:55.65 | 109433 | 131622
7 | 29:14.73 | 3:24.42 | 131623 | 146964
8 | 32:39.40 | 4:02.68 | 146965 | 165182
Range status and errors
Selected range
Filename E:1 AudioCD IMAGESSandra - Discography1985 - The Long PlaySandra - The Long Play.ape
Peak level 84.0 %
Range quality 100.0 %
Test CRC 8EF8446C
Copy CRC 8EF8446C
Copy OK
No errors occurred
AccurateRip summary
Track 1 accurately ripped (confidence 6) [40DD2ABB]
Track 2 accurately ripped (confidence 6) [E74AF19F]
Track 3 accurately ripped (confidence 6) [C3121532]
Track 4 accurately ripped (confidence 6) [4A9CC406]
Track 5 accurately ripped (confidence 6) [3F02A841]
Track 6 accurately ripped (confidence 6) [6D6296EF]
Track 7 accurately ripped (confidence 6) [FAD6ECF9]
Track 8 accurately ripped (confidence 7) [2DBEF3CA]
All tracks accurately ripped
End of status report


1986 - Mirrors (APE (image+.cue)) ▼


Продолжительность: 00:34:46

Tреклист:
[00:35] 01. Sandra - The Second Day
[04:53] 02. Sandra - Dont Cry (The Breakup Of The World)
[04:10] 03. Sandra - Hi! Hi! Hi!
[03:03] 04. Sandra - Midnight Man
[04:27] 05. Sandra - Youll Be Mine
[05:22] 06. Sandra - Innocent Love
[03:44] 07. Sandra - Two Lovers Tonight
[04:11] 08. Sandra - Mirror Of Love
[04:17] 09. Sandra - Loreen

Лог проверки качества ▼Text
Exact Audio Copy V0.99 prebeta 3 from 28. July 2007
EAC extraction logfile from 20. December 2008, 9:59
Sandra / Mirrors
Used drive : TSSTcorpCDDVDW SH-S203B Adapter: 2 ID: 0
Read mode : Secure
Utilize accurate stream : Yes
Defeat audio cache : Yes
Make use of C2 pointers : No
Read offset correction : 6
Overread into Lead-In and Lead-Out : No
Fill up missing offset samples with silence : Yes
Delete leading and trailing silent blocks : No
Null samples used in CRC calculations : Yes
Used interface : Native Win32 interf
2be0743c297514b3db748c579311a3359108e2a7(Дискография, 1985 - 2009) Sandra (Pop) [APE (image+.cue), FLAC (image+.cue), lossless] (Дискография, 1985 - 2009) Sandra (Pop) [APE (image+.cue), FLAC (image+.cue), lossless] " />

Аплоадер: Админ, дата: 29-11-2011, 18:09, торрент скачан: 359 раз

Понравилась раздача? Посмотрите эти:
  • (2002) Urker / Уркер / Made In Kazakhstan (Pop, Ethno) [FLAC (image+.cue), ...
  • (1974-2007) Sandra - 14 Альбомов (Disco) [MP3 192kbps]
  • (Soundtrack,2002) Пианист / The Pianist - Music from the Motion Picture (Fr ...
  • ( Soundtrack,1999) VA - American Beauty Original Motion Picture Soundtrack ...
  • (Дискография) 1981-2009 Depeche Mode (Electronic, Synthpop) [FLAC (tracks+ ...
  • (1989) Kaoma / Lambada (lambada / latin / ethnic) [FLAC (image+.cue), lossl ...
  • (2010) Ассаи / Лифт (Rap) [FLAC(image+.cue), lossless]
  • Slayer - 12 CD (Original Japanese Editions) (Thrash Metal) [FLAC(image+.cue ...
  • (1968) Ten Years After / Undead (Rock / Blues / Blues Rock) [Flac (tracks+. ...
  • (2003) Пикник / Говорит и показывает (Полная история) (Rock) [WavPack (imag ...
  • (Дискография1983 - 1985) Eddie Jobson (ProgRock, Electronic) [APE (image+.c ...
  • (2011, 5CD Box set) Boney M / Original Album Classics (Reggae, Disco, R&B, ...
  • (1984) Van Halen / 1984 (Japanese 1984 SHM-CD Edition) (Hard & Heavy) [APE ...
  • (2012) Sandra / Maybe Tonight (Pop, Eurodisco) [FLAC (tracks+.cue), lossles ...
  • (2011) Linkin Park / Iridescent (Alternative Rock) [FLAC(image+.cue), lossl ...
  • (2011) Сурганова & Оркестр / Увидимся скоро (Rock) [FLAC (image+.cue), loss ...
  • (2011) Metallica / Beyond Magnetic (Thrash Metal) [FLAC (image+.cue), lossl ...
  • (Дискография, 2002 - 2012) Rodrigo y Gabriela (Acoustic, Flamenco, Classica ...
  • (1994, 5 CD Box set) Echoes Of Nature (Звуки природы) / The Natural Sounds ...
  • (2012) Adrenaline Mob / Omerta (Heavy Metal/Progressive/Nu-Metal) [FLAC (im ...
  • (2012) Young Guns / Bones (Alternative Rock) [FLAC (tracks +.cue), lossless ...
  • (2011) Sylvan / Sceneries (Neo-Progressive) [FLAC (image+.cue), lossless]
  • (2009) Exivious (Ex. Cynic) / Exivious (Progressive Metal/Death Metal) [FLA ...
  • (2010) Татьяна Буланова / Романсы (Pop) [FLAC (image+.cue), lossless]
  • (2012) Sandra / Stay In Touch (2 CD) (Deluxe Edition) (Pop) [FLAC (tracks+. ...
  • Информация
    Посетители, находящиеся в группе Гости, не могут оставлять комментарии к данной публикации.