вход на сайт

Имя пользователя :
Пароль :

Восстановление пароля Регистрация
(2010) VA / Танцевальный Рай - Для Влюбленных 12 (Pop) [FLAC (image+.cue), lossless]
Рейтинг:
(голосов: 1)



[img]{THEME}/images/logopost.png[/img]



Исполнитель: VA
Альбом: Танцевальный Рай - Для Влюбленных 12
Тип альбома: Compilation
Год выпуска: 2010
Жанр: Pop
Формат: FLAC (image+.cue)
Битрейт: lossless
Продолжительность: 01:16:39

Tреклист:

01. Edward Maya & Vika Jigulina - Stereo Love (Acoustic Version) [00:04:36]
02. The Rasmus feat. Anette Olzon - October & April [00:03:50]
03. Bellatrix feat. Tina Cousins - Cant Hold Back (Acoustic Mix) [00:03:32]
04. Crazy Disco - Reason [00:03:09]
05. Celia - My Story (Ballad Version) [00:03:37]
06. Ayoe Angelica - Dr.Jeckyll [00:03:14]
07. Crew 7 feat. Men Of Honor - Everytime We Touch (Original Mix) [00:03:08]
08. Ashanti - Where I Stand [00:04:08]
09. Michaela Wright - Never Gonna Give In [00:04:10]
10. The One Hundred - Break Me Down (Urban Lounge Edit) [00:03:19]
11. Arash - Tanham [00:03:17]
12. Brisby And Jingles feat. Miloud - Wholl Stop The Rain (Orchestra Version) [00:03:31]
13. Humane - Heaven Help Me [00:03:21]
14. Matisse - Tel Aviv (Hill Of Spring) [00:03:57]
15. Sylwania - Feel Like Heaven (Candelight Mix) [00:03:46]
16. Hotel Pesona - Addicted [00:03:46]
17. ATB - Missing [00:04:17]
18. Chris De Burg - Without You [00:03:17]
19. Filo & Peri feat. Fisher - All I Ask [00:02:53]
20. Danzel - Unlocked [00:03:18]
21. Declan - Nights In White Satin [00:03:41]


Отчет EAC

TextExact Audio Copy V0.99 prebeta 5 from 4. May 2009
Отчёт EAC об извлечении, выполненном 25. февраля 2010, 23:59
Танцевальный Рай / Для Влюбленных 12
Дисковод: TSSTcorpCDDVDW SH-S223Q Adapter: 3 ID: 0
Режим чтения : Достоверность
Использование точного потока : Да
Отключение кэша аудио : Да
Использование указателей C2 : Нет
Коррекция смещения при чтении : 6
Способность читать области Lead-in и Lead-out : Нет
Заполнение пропущенных сэмплов тишиной : Да
Удаление блоков с тишиной в начале и конце : Нет
При вычислениях CRC использовались нулевые сэмплы : Да
Интерфейс : Встроенный Win32-интерфейс для Win NT/2000
Выходной формат : Пользовательский кодировщик
Выбранный битрейт : 768 kBit/s
Качество : Высокий
Добавление ID3-тэга : Нет
Утилита сжатия : C:Program FilesExact Audio CopyFLACFLAC.EXE
Дополнительные параметры : -6 -V -T "ARTIST=%a" -T "TITLE=%t" -T "ALBUM=%g" -T "DATE=%y" -T "TRACKNUMBER=%n" -T "GENRE=%m" -T "COMMENT=%e" %s -o %d
TOC извлечённого CD
Трек | Старт | Длительность | Начальный сектор | Конечный сектор
---------------------------------------------------------------------
1 | 0:00.00 | 4:38.51 | 0 | 20900
2 | 4:38.51 | 3:52.40 | 20901 | 38340
3 | 8:31.16 | 3:34.06 | 38341 | 54396
4 | 12:05.22 | 3:11.01 | 54397 | 68722
5 | 15:16.23 | 3:39.11 | 68723  
e10e5960ea9534e581c468d401515d467586ac9b(2010) VA / Танцевальный Рай - Для Влюбленных 12 (Pop) [FLAC (image+.cue), lossless] (2010) VA / Танцевальный Рай - Для Влюбленных 12 (Pop) [FLAC (image+.cue), lossless] " />

Аплоадер: Админ, дата: 13-07-2011, 08:02, торрент скачан: 359 раз

Понравилась раздача? Посмотрите эти:
  • (1993) Coverdale & Page / Coverdale & Page (EMI Holland)(Hard Rock) [FLAC ( ...
  • (2000) a-ha / Minor Earth | Major Sky (Alternative Rock, Synth-pop ) [FLAC ...
  • (2003) Eagles / The Very Best Of Eagles (Rock) ( 2CD Warner USA) [FLAC (ima ...
  • (2013) Смоки Мо / Младший (Rap, Hip-Hop) [FLAC (Tracks+.Cue), Lossless]
  • (2013) Баста / Баста 4 (Rap, Hip-Hop) [FLAC (Tracks+.Cue), Lossless]
  • (2013) Loc-Dog & Tony VA / Все знают всё (Rap, Hip-Hop) [FLAC (Tracks+.Cue ...
  • (2013) Pinnick Gales Pridgen / Pinnick Gales Pridgen (Hard Rock, Heavy Blue ...
  • (2012) Рем Дигга / Черника (Rap) [FLAC (tracks+.cue), lossless]
  • (2010) Schiller / Breathless (Electronic) [FLAC (image+.cue), lossless]
  • (2010) БИ-2 / О чём говорят мужчины (Pop-Rock) [FLAC (image + .cue), lossle ...
  • (2011) ГРОТ / О Пути По Встречной (Rap) [FLAC (tracks+.cue), lossless]
  • (1997) Jazz Cafe / Simple Pleasures (Jazz, instrumental) [FLAC (image+.сue ...
  • (Дискография, 2006-2011) Светлана Копылова (Православная песня) [FLAC (imag ...
  • (2012) The Rasmus / The Rasmus (Alternative Rock/Melodic Rock) [FLAC (track ...
  • (1993) Mireille Mathieu / Chante Piaf (Pop) [FLAC (tracks+.cue), lossless]
  • (2012) The Blues Overdrive / The Blues Overdrive (Blues-Rock) [FLAC (image+ ...
  • (2012) Guf / Сам И ... (Rap) [FLAC (tracks+.cue), lossless]
  • (2012) Триада / Мои глаза открыты (Rap) [FLAC (tracks+.cue), lossless]
  • (2012) KREC / Молча проще (Rap) [FLAC (tracks+.cue), lossless]
  • (1986) Dark Angel / Darkness Descends (Thrash Metal) [FLAC (image+.cue), lo ...
  • (2001) Лучшие звуки природы (Звуки природы) [FLAC (image+.cue), lossless]
  • (2011) Ассаи / ОМ (Rap) [FLAC (tracks+.cue), lossless]
  • (2012) Strange Contact / Retro (Synthpop) [FLAC (image+.сue), lossless]
  • (2012) Ария / Live In Studio (Heavy Metal) [FLAC (image+.сue), lossless]
  • (2008) Nirvana / The Best Of (Grunge, Alternative) [FLAC (image+.сue), loss ...
  • Информация
    Посетители, находящиеся в группе Гости, не могут оставлять комментарии к данной публикации.