вход на сайт

Имя пользователя :
Пароль :

Восстановление пароля Регистрация
(2001) Андрей Алексин / Ш*лава (Pop) [FLAC (image+.cue), lossless]
Рейтинг:
(голосов: 1)



[img]{THEME}/images/logopost.png[/img]



Исполнитель: Андрей Алексин (Онищенко)
Альбом: Шалава
Тип альбома: студийный
Год выпуска: 2001
Страна: Россия
Лейбл: APC
Жанр: поп, блатной «шансон», бардовская песня (Pop, Russian Chanson, Bards Blatnyak)
Формат: FLAC (images+.cue)
Битрейт: lossless
Продолжительность: 47:27 минут (125569679 samples)

Об авторе: Андрей Владимирович Онищенко (псевдоним «Алексин») — российский исполнитель одноимённой группы.
Родился 6 июля 1968 года в городе Алексине. Закончил тульское культпросветучилище, по специальности «руководитель оркестра народных инструментов». После службы в армии 5 лет проработал школьным учителем музыки, стал «Лучшим учителем» Тульской области. Параллельно с этим играл в созданной им группе «Белая гвардия». В 2001 году компания «АРС» выпустила дебютный альбом Алексина — «Шалава». На данный момент выпущено 6 альбомов...цитата: ▼ — На какую публику вы ориентируете свои песни?
— (…) Приходите на мои концерты и посмотрите кто ходит меня послушать. Но одно я могу сказать определенно точно. Люди, которые слушают мои песни, «очень веселые» [(скоб.)] и легко могут самоиронизировать и даже открыто смеяться над собой. И именно это качество я больше всего ценю в людях. ©
Tреклист:01. Алексин - Шалавы...(4:43)
02. Алексин - Страшная...(4:02)
03. Алексин - Хищница...(3:29)
04. Алексин - Балы...(5:40)
05. Алексин - Карамелька...(3:04)
06. Алексин - Дискотеки...(4:36)
07. Алексин - Вот так......(3:12)
08. Алексин - Одеяло...(3:56)
09. Алексин - Лиза...(3:49)
10. Алексин - Крик журавлей...(3:48)
11. Алексин - Александра...(3:34)
12. Алексин - Прости меня любовь...(3:36)
EAC Log ▼TextEAC extraction logfile from 26. July 2008, 11:07 for CD
Алексин / Шалава

Used drive : Optiarc DVD RW AD-7170A Adapter: 3 ID: 0
Read mode : Secure with NO C2, accurate stream, disable cache
Read offset correction : 48
Overread into Lead-In and Lead-Out : No

Other options :
Fill up missing offset samples with silence : Yes
Delete leading and trailing silent blocks : No
Native Win32 interface for Win NT & 2000


Range status and errors
Selected range
Filename E:Алексин - Шалава.wav

Peak level 97.7 %
Range quality 99.9 %
CRC DE02C1DA
Copy OK

No errors occured

End of status report
.cue ▼TextREM DATE 2001
REM DISCID C40D1F0E
REM COMMENT "ExactAudioCopy v0.95b4"
PERFORMER "Алексин"
TITLE "Шалава"
FILE "Алексин - Шалава.flac" WAVE
TRACK 01 AUDIO
TITLE "Шалавы"
PERFORMER "Алексин"
FLAGS DCP
INDEX 01 00:00:00
TRACK 02 AUDIO
TITLE "Страшная"
PERFORMER "Алексин"
FLAGS DCP
INDEX 01 04:42:39
TRACK 03 AUDIO
TITLE "Хищница"
PERFORMER "Алексин"
FLAGS DCP
INDEX 01 08:44:35
TRACK 04 AUDIO
TITLE "Балы"
PERFORMER "Алексин"
FLAGS DCP
INDEX 01 12:13:23
TRACK 05 AUDIO
TITLE "Карамелька"
PERFORMER "Алексин"
FLAGS DCP
INDEX 01 17:52:70
TRACK 06 AUDIO
TITLE "Дискотеки"
PERFORMER "Алексин"
FLAGS DCP
INDEX 01 20:56:68
TRACK 07 AUDIO
TITLE "Вот так..."
PERFORMER "Алексин"
FLAGS DCP
INDEX 01 25:33:01
TRACK 08 AUDIO
TITLE "Одеяло"
PERFORMER "Алексин"
FLAGS DCP
INDEX 01 28:44:68
TRACK 09 AUDIO
9520ffc942f6749afec42b2b146fcd27413dcb0f(2001) Андрей Алексин / Ш*лава (Pop) [FLAC (image+.cue), lossless] (2001) Андрей Алексин / Ш*лава (Pop) [FLAC (image+.cue), lossless] " />

Аплоадер: Админ, дата: 22-05-2011, 01:28, торрент скачан: 359 раз

Понравилась раздача? Посмотрите эти:
  • (2006) The Beatles / Love (Rock) [24bit - 96kHz] [FLAC(image+.cue), lossles ...
  • (2012) The Doors - L.A. Woman(1971)[lp] [24bit - 96kHz] [FLAC(image+.cue), ...
  • (2009) Nightwish / Made In Hong Kong (And In Various Other Places) (Sympho- ...
  • (2013) Buddy Guy / Rhythm & Blues (2CD) (Blues) [FLAC (image+.cue), Lossles ...
  • (2013) Paul McCartney / New (Deluxe Edition) (Rock) [FLAC (image,+.cue), lo ...
  • (2013) Linkin Park & Steve Aoki / A Light That Never Comes (Electronic Rock ...
  • (2008) Karunesh /Enlightenment (New Age) [FLAC (image+.cue), lossless]
  • (2011) Disturbed / The Lost Children (Alternative Metal) [FLAC (tracks+.cue ...
  • (2012) Katie Melua / Secret Symphony (Jazz Pop, Vocal Jazz) [FLAC (tracks+. ...
  • (Сборник, 1990 - 2005) Enigma - Maxi Singles / 16 альбомов (Abstract, Ambie ...
  • (2012) Tomandandy / Resident Evil: Retribution (Score, Soundtrack)[FLAC (tr ...
  • [LP] (2011) Adele / 21 (2 CD) (XL Recordings LP; DMR) (R&B, Soul, Gospel, B ...
  • (2012) Madonna / Superstar (Pop) [FLAC (image+.cue), lossless]
  • [LP] (1984) АНДРЕЙ ПЕТРОВ / Жестокий романс OST [FLAC LP24/96 (image+.cue), ...
  • (2012) Buckethead / Electric Sea (Experimental/Acoustic/Ambient/Rock) [FLAC ...
  • (2012) Les Friction / Les Friction (Alt. Rock/Neo-Classical/Orchestral) [FL ...
  • (2011) SeeS / The enD (Progressive/Math Metal) [FLAC (tracks+.cue), lossles ...
  • (2012) Our Lady Peace / Curve (Alternative/Rock) [FLAC (tracks+.cue), lossl ...
  • (2012) Nine Lashes / World We View (Alt.Rock/Alt.Metal/Christian) [FLAC (tr ...
  • (2012) For Today / Immortal (Metalcore, Hardcore, Christian) [FLAC (tracks+ ...
  • Информация
    Посетители, находящиеся в группе Гости, не могут оставлять комментарии к данной публикации.