вход на сайт

Имя пользователя :
Пароль :

Восстановление пароля Регистрация
(2009) Michael Jackson / The Stripped Mixes (POP) [Flac / Tracks + .cue]
Рейтинг:
(голосов: 1)



[img]{THEME}/images/logopost.png[/img]



Исполнитель: Michael Jackson
Альбом: The Stripped Mixes
Тип альбома: Compilation
Год выпуска: 2009
Жанр: Pop,
Формат: FLAC (tracks+.cue)
Битрейт: lossless
Продолжительность: 00:38:34

Tреклист:
01.Ill Be There [03:55]
02.Ben [02:42]
03.Whos Loving You [04:24]
04.Aint No Sunshine [04:08]
05.I Want You Back [03:48]
06.ABC [03:11]
07.Weve Got A Good Thing Going [03:15]
08.With A Childs Heart [04:07]
09.Darling Dear [02:33]
10.Got To Be There [03:15]
11.Never Can Say Goodbye [03:11]

"Отчет EAC" ▼Exact Audio Copy V0.99 prebeta 5 from 4. May 2009
EAC extraction logfile from 10. January 2011, 18:35
Michael Jackson / The Stripped Mixes
Used drive: MATSHITADVD-RAM UJ890AS Adapter: 1ID: 0
Read mode : Secure
Utilize accurate stream : Yes
Defeat audio cache: Yes
Make use of C2 pointers : No
Read offset correction: 102
Overread into Lead-In and Lead-Out: No
Fill up missing offset samples with silence : Yes
Delete leading and trailing silent blocks : No
Null samples used in CRC calculations : Yes
Used interface: Native Win32 interface for Win NT & 2000
Gap handling: Appended to previous track
Used output format: User Defined Encoder
Selected bitrate: 1024 kBit/s
Quality : High
Add ID3 tag : No
Command line compressor : C:Program FilesExact Audio CopyFLACFLAC.EXE
Additional command line options : -8 -V -T "ARTIST=%a" -T "TITLE=%t" -T "ALBUM=%g" -T "DATE=%y" -T "TRACKNUMBER=%n" -T "GENRE=%m" -T "COMMENT=%e" %s -o %d
TOC of the extracted CD
Track | Start|Length| Start sector | End sector
---------------------------------------------------------
1|0:00.00 |3:55.39 | 0|17663
2|3:55.39 |2:43.08 | 17664|29896
3|6:38.47 |4:25.11 | 29897|49782
4| 11:03.58 |4:08.66 | 49783|68448
5| 15:12.49 |3:48.09 | 68449|85557
6| 19:00.58 |3:11.12 | 8
95cbc384eee2c6e9b162c1f2efd9877cfb5bd23f(2009) Michael Jackson / The Stripped Mixes (POP) [Flac / Tracks + .cue] (2009) Michael Jackson / The Stripped Mixes (POP) [Flac / Tracks + .cue] " />

Аплоадер: Админ, дата: 12-01-2011, 11:06, торрент скачан: 359 раз

Понравилась раздача? Посмотрите эти:
  • (2009) НОЧНЫЕ СНАЙПЕРЫ — Армия2009 (русский рок) [FLAC (lossless), tracks+. ...
  • (2009) ONE REPUBLIC / Waking Up (Pop-Rock/Alternative) [FLAC (tracks+.cue) ...
  • (2009) SHAKIRA / She Wolf (US Edition) (Pop) [Flac (tracks+.cue), lossless] ...
  • (2010)Scorpions/Sting In The Tail [FLAC (tracks+cue), lossless]
  • (2010) ПИKНИК / Театр Абсурда (Art-Rock) [FLAC (tracks+.cue), lossless]
  • (2010) Deftones / Diamond Eyes (Nu metal / Alternative) [FLAC, (tracks+ cu ...
  • (2008) Pink / Funhouse (Pop) [FLAC (tracks) lossless]
  • (Дискография) GORILLAZ (Trip-Hop) [FLAC (tracks + .cue) lossless]
  • (2010) Eminem / Recovery (Rap / Hip-Hop) [FLAC (tracks+.cue) lossless]
  • (2010) Michael Jackson - Michael (Pop) [FLAC, (tracks+.cue), lossless]
  • (2010) Нюша / Выбирать чудо (Pop) [FLAC(tracks+.cue), lossless]
  • (2006) DMX / Year Of The Dog...Again (EU) (Rap) [FLAC (tracks)]
  • (2010) Ne-Yo / Libra Scale (Japanese Edition) (RnB) [FLAC (tracks+.cue) los ...
  • (2010) Rihanna / Loud (R&B) [FLAC (tracks+.cue), lossless]
  • (2003) DJ Zinc / Faster (DnB, Breaks) [ FLAC (tracks+.cue), lossless]
  • (2010) Morcheeba / Blood Like Lemonade ( Electronic, Downtempo, Pop, Trip-h ...
  • (2010) Linkin Park / A Thousand Suns (Alternative, Electronic) [FLAC (track ...
  • (2011) Electric Universe / Higher Modes (Psytrance, Full On) [FLAC (tracks+ ...
  • (2011) Ленинград / Хна (Rock) [FLAC (tracks+.cue), lossless]
  • (2012) Оргия Праведников / Шитрок (Rock/Progressive Rock) [FLAC (tracks+cue ...
  • Информация
    Посетители, находящиеся в группе Гости, не могут оставлять комментарии к данной публикации.