вход на сайт

Имя пользователя :
Пароль :

Восстановление пароля Регистрация
(2010) Нюша / Выбирать чудо (Pop) [FLAC(tracks+.cue), lossless]
Рейтинг:
(голосов: 1)



[img]{THEME}/images/logopost.png[/img]



Нюша - Выбирать чудо

Исполнитель: Нюша
Альбом: Выбирать чудо
Тип альбома: Студийный
Год выпуска: 2010
Жанр: Pop
Формат: FLAC (tracks+.cue)
Битрейт: lossless
Продолжительность: 01:03:28

Tреклист:
01. Нюша - Ты слишком сильный (3:36)
02. Нюша - Выбирать чудо (4:27)
03. Нюша - Не перебивай (4:00)
04. Нюша - Больно (3:33)
05. Нюша - Ты обещал (3:28)
06. Нюша - Отображенье (3:39)
07. Нюша - Выше (3:58)
08. Нюша - Другая (3:29)
09. Нюша - Ангел (3:04)
10. Нюша - Вою на луну (3:21)
Bonus tracks:
11. Нюша - Выше (Breakbeat version) (3:39)
12. Нюша - Выбирать чудо (Dance version) (4:03)
13. Нюша - Не перебивай (Dance version) (3:58)
14. Нюша - Вою на луну (Dance version) (3:17)
15. Нюша - Angel (3:04)
16. Нюша - Im not discovered (3:11)
17. Нюша - Why (2:44)
18. Нюша - Hello (3:33)

Отчет EAC:
▼Exact Audio Copy V0.99 prebeta 5 from 4. May 2009

EAC extraction logfile from 25. November 2010, 16:16

Нюша / Выбирать чудо

Used drive: Optiarc DVD RW AD-5200A Adapter: 0ID: 0

Read mode : Secure
Utilize accurate stream : Yes
Defeat audio cache: Yes
Make use of C2 pointers : No

Read offset correction: 48
Overread into Lead-In and Lead-Out: No
Fill up missing offset samples with silence : Yes
Delete leading and trailing silent blocks : No
Null samples used in CRC calculations : Yes
Used interface: Installed external ASPI interface
Gap handling: Appended to previous track

Used output format: User Defined Encoder
Selected bitrate: 320 kBit/s
Quality : High
Add ID3 tag : No
Command line compressor : C:Program FilesExact Audio CopyFlacflac.exe
Additional command line options : -8 -V -T "ARTIST=%a" -T "TITLE=%t" -T "ALBUM=%g" -T "DATE=%y" -T "TRACKNUMBER=%n" -T "GENRE=%m" -T "COMMENT=EAC FLAC -8" %s

TOC of the extracted CD

Track | Start|Length| Start sector | End sector
---------------------------------------------------------
1|0:00.00 |3:36.64 | 0|16263
2|3:36.64 |4:27.17 | 16264|36305
3|8:04.06 |4:00.60 | 36306|54365
4| 12:04.66 |3:33.47 |&nbs
248616db25274d6aec5c916c5ebb4c190ddcd1cc(2010) Нюша / Выбирать чудо (Pop) [FLAC(tracks+.cue), lossless] (2010) Нюша / Выбирать чудо (Pop) [FLAC(tracks+.cue), lossless] " />

Аплоадер: Админ, дата: 19-12-2010, 14:49, торрент скачан: 359 раз

Понравилась раздача? Посмотрите эти:
Информация
Посетители, находящиеся в группе Гости, не могут оставлять комментарии к данной публикации.