вход на сайт

Имя пользователя :
Пароль :

Восстановление пароля Регистрация
(1981) Boney M / Christmas Album (UnRemaster) (Disco) [APE (image + .cue), lossless]
Рейтинг:
(голосов: 1)



[img]{THEME}/images/logopost.png[/img]



Исполнитель: Boney M
Альбом: Christmas Album (UnRemaster)
Тип альбома: Студийный
Год выпуска: 1981
Жанр: Disco
Формат: APE (image + .cue)
Битрейт: lossless

Продолжительность: 00:45:05

Tреклист:
[04:24] 01. Boney M. - Little Drummer Boy
[04:21] 02. Boney M. - White Christmas
[03:08] 03. Boney M. - Feliz Navidad
[02:54] 04. Boney M. - Jingle Bells
[02:59] 05. Boney M. - Winter Fairy-Tale
[05:10] 06. Boney M. - Marys Boy Child/Oh My Lord
[06:24] 07. Boney M. - Christmas-Medley
[01:43] 08. Boney M. - Petit Papa Noel
[03:52] 09. Boney M. - Zions Daughter
[03:22] 10. Boney M. - When A Child Is Born
[03:00] 11. Boney M. - Darkness Is Falling
[03:44] 12. Boney M. - Ill Be Home For Christmas


"Отчет EAC" ▼Exact Audio Copy V0.99 prebeta 3 from 28. July 2007

Отчёт EAC об извлечении, выполненном 13. декабря 2007, 13:31

Boney M. / Christmas Album

Дисковод: Optiarc DVD RW AD-7170S Adapter: 2ID: 0

Режим чтения : Достоверность
Использование точного потока : Да
Отключение кэша аудио: Да
Использование указателей C2: Нет

Коррекция смещения при чтении : 48
Способность читать области Lead-in и Lead-out : Нет
Заполнение пропущенных сэмплов тишиной: Да
Удаление блоков с тишиной в начале и конце: Нет
При вычислениях CRC использовались нулевые сэмплы : Нет
Интерфейс : Установленный внешний ASPI-интерфейс

Выходной формат : Monkeys Audio Lossless Encoder v3.99 DLL
Формат сэмплов: Normal Lossless Compression


TOC извлечённого CD

Трек | Старт| Длительность | Начальный сектор | Конечный сектор
---------------------------------------------------------------------
1|0:00.00 |4:24.23 | 0|19822
2|4:24.23 |4:21.15 | 19823|39412
3|8:45.38 |3:08.62 | 39413|53574
4| 11:54.25 |2:54.70 | 53575|66694
5| 14:49.20 |2:59.30 | 66695|80149
6| 17:48.50 |5:10.55 | 80150&
03edc39756bfc4b000e2dc253d9e3dd756c867d9(1981) Boney M / Christmas Album (UnRemaster) (Disco) [APE (image + .cue), lossless] (1981) Boney M / Christmas Album (UnRemaster) (Disco) [APE (image + .cue), lossless] " />

Аплоадер: Админ, дата: 11-12-2010, 16:57, торрент скачан: 359 раз

Понравилась раздача? Посмотрите эти:
  • (1994) Frank Sinatra & Bing Crosby / White Christmas (Vocal Jazz, Christmas ...
  • (2011) Boney M. / Platin Edition. The Hits Of Boney M. (Pop, Disco) [MP3, 3 ...
  • (2009) Boney M - Megamix [MP3 256CBR]
  • (2010) Boney M / Все Хиты [The Best] (pop/Disco) [Mp3, 320 kbps/CBR]
  • (2011) Boney James / Contact (Smooth Jazz) [MP3, 320kbps/VBR]
  • (2012) Boney M. / Remembering The Seventies (Disco) [mp3,320/CBR]
  • (2007) СТАС МИХАЙЛОВ - Лучшие песни (Шансон) [APE (image + .cue) lossless]
  • (2000) Tic Tac Toe / Ist der Ruf erst ruiniert... (Rap,Hip-hop) [Lossless, ...
  • (2008) НоГГано / Первый (Rap) [APE(image+cue), lossless]
  • (2010) Мафик / Ангел (Шансон) [FLAC(image+cue), lossless]
  • (2010) Баста / Баста 3 (Rap) [APE (image+.cue), lossless]
  • (2010) ST1M / Октябрь (Rap) [APE(image+.cue), lossless]
  • (2010) ДиДюЛя / Аромат (flamenco, instrumental, folk) [APE (image + .cue), ...
  • (1984) Boney M / Ten Thousand Lightyears (Disco) [APE (image+.cue) lossles ...
  • (1985) BABYS GANG / Challenger (Pop,Italo Disco) [APE(image+.cue)lossless] ...
  • (2010) ДаБац (Da Budz) / Вершки Да Корешки(Rap) [APE (image+.cue), lossless ...
  • (2011) Within Temptation / The Unforgiving (Symphonic Gothic Metal) [FLAC ( ...
  • (2011, 5CD Box set) Boney M / Original Album Classics (Reggae, Disco, R&B, ...
  • (2011) Modern Talking / Peace On Earth - Winter In My Heart (Disco, Christm ...
  • Boney M / The Magic Of Boney M (2006)
  • Boney M / Die ZDF-Kultnacht [2011, Disco, HDTVRip]
  • (2009) Rihanna / Rated R (R`n`B) [APE (image+.cue)]
  • (2011) Boney M. - Barbra Streisand: Boney M. Goes Club (dance, club) [Mp3, ...
  • (1996) Jingle Bells — The London Studio Orchestra & Cathedral City Project ...
  • (2008) Студия 80 / Придуманный Мир (Pop) [FLAC (image+.cue), lossless]
  • Информация
    Посетители, находящиеся в группе Гости, не могут оставлять комментарии к данной публикации.