вход на сайт

Имя пользователя :
Пароль :

Восстановление пароля Регистрация
(2010) A-HA / 25 (2 CD) (Pop) [FLAC (image + .cue)]
Рейтинг:
(голосов: 1)



[img]{THEME}/images/logopost.png[/img]



Исполнитель: A-ha
Альбом: 25
Тип альбома: Compilation
Год выпуска: 2010
Жанр: Pop
Формат: FLAC (image+.cue)
Битрейт: lossless

Bonus DVD
http://rutor.kz/download.html?torrentID=1aece13fe286c9c8249e75c2ab0cf0d3fe2a365b

ПЕРЕЗАЛИТО 30.08.2010 в 18:50 (был кривой .cue на CD2)

CD1▼
Продолжительность: 01:19:49

Tреклист:

01. Take On Me 3:49
02. The Blue Sky 2:36
03. The Sun Always Shines On T.V. 5:08
04. Train Of Thought (7 Remix) 4:16
05. Hunting High And Low (7 Remix) 3:48
06. Ive Been Losing You 4:26
07. Scoundrel Days 4:01
08. The Swing Of Things 4:16
09. Cry Wolf 4:07
10. Manhattan Skyline (Edit Version) 4:21
11. The Living Daylights 4:12
12. Stay On These Roads 4:47
13. Touchy! (UK DJ Edit) 3:39
14. Theres Never A Forever Thing 2:51
15. You Are The One (7 Remix) 3:50
16. The Blood That Moves The Body (Two-Time Gun Remix) 4:09
17. Crying In The Rain 4:21
18. Early Morning 2:59
19. Slender Frame 3:44
20. I Call Your Name 4:30

"Отчет EAC" ▼Exact Audio Copy V0.99 prebeta 5 from 4. May 2009

EAC extraction logfile from 20. August 2010, 9:46

A-ha / 25

Used drive: PIONEER DVD-RWDVR-110D Adapter: 2ID: 1

Read mode : Secure
Utilize accurate stream : Yes
Defeat audio cache: Yes
Make use of C2 pointers : No

Read offset correction: 48
Overread into Lead-In and Lead-Out: No
Fill up missing offset samples with silence : Yes
Delete leading and trailing silent blocks : No
Null samples used in CRC calculations : Yes
Used interface: Native Win32 interface for Win NT & 2000

Used output format: User Defined Encoder
Selected bitrate: 768 kBit/s
Quality : High
Add ID3 tag : No
Command line compressor : C:Program FilesExact Audio CopyFlac lac.exe
Additional command line options : -8 -V %s

TOC of the extracted CD

Track | Start|Length| Start sector | End sector
---------------------------------------------------------
1|0:00.00 |3:49.01 | 0|17175
2|3:49.01 |2:36.15 | 17176|28890
3|6:25.16 |5:07.72 | 28891|51987
4| 11:33.13 |4:15.42 | 51988|71154
5| 15:48.55 | 
984f75515544681ea4020d484d2871d8624d74b9(2010) A-HA / 25 (2 CD) (Pop) [FLAC (image + .cue)] (2010) A-HA / 25 (2 CD) (Pop) [FLAC (image + .cue)] " />

Аплоадер: Админ, дата: 30-08-2010, 18:49, торрент скачан: 359 раз

Понравилась раздача? Посмотрите эти:
  • (2007) GORILLAZ / D-Sides [Japan Edition] (Hip-Hop) [FLAC (image+cue), loss ...
  • (2010)Scorpions/Sting In The Tail [FLAC (tracks+cue), lossless]
  • (1989) Kaoma / Lambada (lambada / latin / ethnic) [FLAC (image+.cue), lossl ...
  • (2008) Pink / Funhouse (Pop) [FLAC (tracks) lossless]
  • (Дискография) GORILLAZ (Trip-Hop) [FLAC (tracks + .cue) lossless]
  • (2010) Сергей Трофимов (Трофим) / Всё не важно (Шансон) [FLAC(image+.cue), ...
  • (2010) Ассаи / Лифт (Rap) [FLAC(image+.cue), lossless]
  • (2010) David Wahler / A Star Danced (New Age, Ambient, Instrumental) [FLAC ...
  • (2010) Eminem / Recovery (Rap / Hip-Hop) [FLAC (tracks+.cue) lossless]
  • (2010) Начало / Inception (by Hans Zimmer) (Score) [FLAC (tracks+.cue) loss ...
  • (2010) Michael Jackson - Michael (Pop) [FLAC, (tracks+.cue), lossless]
  • (2010) YELLO / Yello By Yello. The Anthology (Limited Deluxe Edition 3CD+D ...
  • (2011) The Prodigy / Worlds On Fire (Big Beat, Rave) [FLAC (image+.cue), lo ...
  • (2011) Sam Levine / Smooth Sax Romance (Smooth Jazz) [FLAC (image+.cue), lo ...
  • (2010) Ne-Yo / Libra Scale (Japanese Edition) (RnB) [FLAC (tracks+.cue) los ...
  • (2010) Rihanna / Loud (R&B) [FLAC (tracks+.cue), lossless]
  • (2011) VA - Пиратская Станция Teatro (Drum & Bass) [FLAC (image+.cue) lossl ...
  • (1976) The Eagles / Hotel California [Japan Remastered] (Country Rock) [FLA ...
  • (2010) Morcheeba / Blood Like Lemonade ( Electronic, Downtempo, Pop, Trip-h ...
  • (Full Studio Discography, 2011) George Michael (Japan) (Pop) [FLAC (image+. ...
  • (2009) Чиж & Co / Лучшее. Золотая коллекция (Rock) [FLAC (image+.cue), loss ...
  • (2011) Слот / F5 (Alternative Metal) [FLAC (image+.cue)lossless]
  • (2011) Слот / Break The Code (Alternative Metal) [FLAC (image+.cue)lossless ...
  • (2010) Dutch / A Bright Cold Day (Trip-Hop) [FLAC (image+.cue), lossless]
  • (2010) Punish My Heaven / First Punishment (Melodic Death Metal, Metalcore) ...
  • Информация
    Посетители, находящиеся в группе Гости, не могут оставлять комментарии к данной публикации.