вход на сайт

Имя пользователя :
Пароль :

Восстановление пароля Регистрация
(1998) Pharao / The Return (Eurodance) [APE (image+.cue)]
Рейтинг:
(голосов: 1)



[img]{THEME}/images/logopost.png[/img]



Исполнитель: Pharao
Альбом: The Return
Тип альбома: Студийный (LP)
Год выпуска: 1998
Жанр: Eurodance
Формат: APE (image+.cue)
Битрейт: lossless
Продолжительность: 00:54:51

Tреклист:
1 Intro (1:34)
2 Wish I Could Fly (4:56)
3 Bellydancer (2:14)
4 Temple Of Love (3:46)
5 I Cant Wait (4:35)
6 Its A Wonder (3:57)
7 Rainmaker (4:00)
8 You Are My Man (4:01)
9 Valley Of Kings (1:20)
10 Once Upon A Time (4:11)
11 Love Is A Miracle (3:31)
12 Pick Me Up (3:46)
13 Back Home Again (4:05)
14 Silence Is Golden (3:31)
15 Dreams On Golden Wings (4:30)
16 Outro (0:58)

Релиз от aylaayla
(обложки найдены в Итернете)

Отчет EAC:
▼Exact Audio Copy V0.99 prebeta 4 from 23. January 2008

Отчёт EAC об извлечении, выполненном 31. марта 2009, 2:15

Pharao / The Return

Дисковод: PIONEER DVD-RWDVR-112 Adapter: 0ID: 1

Режим чтения : Достоверность
Использование точного потока : Да
Отключение кэша аудио: Да
Использование указателей C2: Нет

Коррекция смещения при чтении : 48
Способность читать области Lead-in и Lead-out : Нет
Заполнение пропущенных сэмплов тишиной: Да
Удаление блоков с тишиной в начале и конце: Нет
При вычислениях CRC использовались нулевые сэмплы : Да
Интерфейс : Встроенный Win32-интерфейс для Win NT/2000

Выходной формат : Внутренние WAV-операции
Формат сэмплов: 44.100 Гц; 16 бит; стерео

TOC извлечённого CD

Трек | Старт| Длительность | Начальный сектор | Конечный сектор
---------------------------------------------------------------------
1|0:00.00 |1:33.42 | 0| 7016
2|1:33.42 |4:55.40 |7017|29181
3|6:29.07 |2:13.58 | 29182|39214
4|8:42.65 |3:45.47 | 39215|56136
5| 12:28.37 |4:34.73 | 56137|76759
6| 17:03.35 |3:56.52 | 76760|94511
7| 21:00.12 |3:59.38 | 94512| 
6a3bcafd9ad80cc92286c8d75e07f8effe7eb3a3(1998) Pharao / The Return (Eurodance) [APE (image+.cue)] (1998) Pharao / The Return (Eurodance) [APE (image+.cue)] " />

Аплоадер: Админ, дата: 27-06-2010, 06:56, торрент скачан: 359 раз

Понравилась раздача? Посмотрите эти:
  • (1995) Corona / The Rhythm Of The Night (Japan) (Eurodance) [FLAC (image+. ...
  • (дискография, 1983-2008) MADONNA (pop / dance) [WavPack (image+.cue) lossle ...
  • (2000) Tic Tac Toe / Ist der Ruf erst ruiniert... (Rap,Hip-hop) [Lossless, ...
  • (1994) Joy / Grand Collection (EuroDisco) [FLAC (image+.cue) lossless]
  • (2007) Morandi / N3xt (Pop) [APE, (image + .cue), lossless]
  • (2010) Баста / Баста 3 (Rap) [APE (image+.cue), lossless]
  • (2010) ST1M / Октябрь (Rap) [APE(image+.cue), lossless]
  • (2006) Батырхан Шукенов/ Отан Ана (Pop) [FLAC (image+.cue) lossless]
  • (2010) Батыр / Осторожно, милая девушка! (Pop) [FLAC (image+ cue)]
  • (2010) ДиДюЛя / Аромат (flamenco, instrumental, folk) [APE (image + .cue), ...
  • (1985) BABYS GANG / Challenger (Pop,Italo Disco) [APE(image+.cue)lossless] ...
  • (2010) ДаБац (Da Budz) / Вершки Да Корешки(Rap) [APE (image+.cue), lossless ...
  • (2011) Within Temptation / The Unforgiving (Symphonic Gothic Metal) [FLAC ( ...
  • (2011) АукцЫон / Юла (Rock) [APE (image+.cue), lossless]
  • (2003) THE BLACK EYED PEAS / Elephunk (RnB) [Ape (image+.cue), lossless]
  • (2009) Rihanna / Rated R (R`n`B) [APE (image+.cue)]
  • (2009) Guf / Дома (Rap) [APE (image+.cue)]
  • (2001) Катя Огонёк / Дорожный роман (Шансон) [FLAC (image+.cue)]
  • (1993) Любовь Успенская / Любимый (шансон) [APE (image+.cue), lossless]
  • (2009) Челси / Точка возврата (Pop) [APE (image+.cue), lossless]
  • (2009, Cборник) Madonna / Greatest Hits [CD1 + CD2] (Pop) [APE (image+.cue) ...
  • (2011) N1NT3NDO / N1NT3NDO (Rap) [APE (image+.сue), lossless]
  • (1995) Yaki-Da / Pride (Pop, Eurodance) [FLAC (image+.сue), lossless]
  • (2004) Ex-Сектор Газа / Огненный рай (Punk-Rock) [FLAC (image+.cue), lossle ...
  • (2008) Студия 80 / Придуманный Мир (Pop) [FLAC (image+.cue), lossless]
  • Информация
    Посетители, находящиеся в группе Гости, не могут оставлять комментарии к данной публикации.