вход на сайт

Имя пользователя :
Пароль :

Восстановление пароля Регистрация
(2008) Pink / Funhouse (Pop) [FLAC (tracks) lossless]
Рейтинг:
(голосов: 1)



[img]{THEME}/images/logopost.png[/img]



Исполнитель: Pink
Альбом: Funhouse
Тип альбома: Студийный
Год выпуска: 2008
Жанр: Pop
Формат:FLAC (tracks)
Битрейт: lossless

Продолжительность: 00:48:39

Tреклист:
[03:35] 01. Pink - So What
[04:11] 02. Pink - Sober
[04:36] 03. Pink - I Dont Believe You
[03:24] 04. Pink - One Foot Wrong
[03:51] 05. Pink - Please Dont Leave Me
[03:36] 06. Pink - Bad Influence
[03:24] 07. Pink - Funhouse
[03:26] 08. Pink - Crystal Ball
[04:17] 09. Pink - Mean
[03:52] 10. Pink - Its All Your Fault
[03:15] 11. Pink - Ave Mary A
[03:48] 12. Pink - Glitter In The Air
[03:19] 13. Pink - This Is How It Goes Down


Отчет EAC:
▼Exact Audio Copy V0.99 prebeta 4 from 23. January 2008

EAC extraction logfile from 25. October 2008, 17:57

Pink / Funhouse

Used drive: ASUSDRW-1814BLT Adapter: 5ID: 0

Read mode : Secure
Utilize accurate stream : Yes
Defeat audio cache: Yes
Make use of C2 pointers : No

Read offset correction: 6
Overread into Lead-In and Lead-Out: No
Fill up missing offset samples with silence : Yes
Delete leading and trailing silent blocks : No
Null samples used in CRC calculations : Yes
Used interface: Native Win32 interface for Win NT & 2000
Gap handling: Appended to previous track

Used output format: User Defined Encoder
Selected bitrate: 320 kBit/s
Quality : High
Add ID3 tag : No
Command line compressor : J:Program FilesExact Audio CopyFlacflac.exe
Additional command line options : -8 -V -T "ARTIST=%a" -T "TITLE=%t" -T "ALBUM=%g" -T "DATE=%y" -T "TRACKNUMBER=%n" -T "GENRE=%m" -T "COMMENT=EAC FLAC -8" %s


TOC of the extracted CD

Track | Start|Length| Start sector | End sector
---------------------------------------------------------
1|0:00.00 |3:35.12 | 0|16136
2|3:35.12 |4:11.40 | 16137|35001
3|7:46.52 |4:36.21 | 35002|55722
4| 12:22.73 |3:24.58 | 55723|71080
&nbs
d419e4e44d758ae30f69a422150d04c7a3ae6a8d(2008) Pink / Funhouse (Pop) [FLAC (tracks) lossless] (2008) Pink / Funhouse (Pop) [FLAC (tracks) lossless] " />

Аплоадер: Админ, дата: 25-05-2010, 18:48, торрент скачан: 359 раз

Понравилась раздача? Посмотрите эти:
  • (2009) НОЧНЫЕ СНАЙПЕРЫ — Армия2009 (русский рок) [FLAC (lossless), tracks+. ...
  • (2008) ANDREA BOCELLI / Incanto (classical) [FLAC (tracks+.cue) lossless]
  • (1975) Pink Floyd / Wish You Were Here (Psychedelic Rock, Art Rock) [FLAC ( ...
  • (2009) SHAKIRA / She Wolf (US Edition) (Pop) [Flac (tracks+.cue), lossless] ...
  • (2010)Scorpions/Sting In The Tail [FLAC (tracks+cue), lossless]
  • (2010) ПИKНИК / Театр Абсурда (Art-Rock) [FLAC (tracks+.cue), lossless]
  • (2010) Deftones / Diamond Eyes (Nu metal / Alternative) [FLAC, (tracks+ cu ...
  • (2010) Eminem / Recovery (Rap / Hip-Hop) [FLAC (tracks+.cue) lossless]
  • (2010) Michael Jackson - Michael (Pop) [FLAC, (tracks+.cue), lossless]
  • (2010) Нюша / Выбирать чудо (Pop) [FLAC(tracks+.cue), lossless]
  • (2009) Michael Jackson / The Stripped Mixes (POP) [Flac / Tracks + .cue]
  • (2010) Zaz / Zaz (Nu jazz, Chanson, Soul) [FLAC (tracks+.cue), lossless]
  • (2006) DMX / Year Of The Dog...Again (EU) (Rap) [FLAC (tracks)]
  • (2011) Red Hot Chili Peppers / Im With You (Alternative Rock/Funk) [FLAC (t ...
  • (2010) Ne-Yo / Libra Scale (Japanese Edition) (RnB) [FLAC (tracks+.cue) los ...
  • (2010) Rihanna / Loud (R&B) [FLAC (tracks+.cue), lossless]
  • (2003) DJ Zinc / Faster (DnB, Breaks) [ FLAC (tracks+.cue), lossless]
  • (2011) Electric Universe / Higher Modes (Psytrance, Full On) [FLAC (tracks+ ...
  • (2008) Scars on Broadway / Scars on Broadway (Japan Edition) (Alt.Metal/Exp ...
  • (2012) Оргия Праведников / Шитрок (Rock/Progressive Rock) [FLAC (tracks+cue ...
  • Информация
    Посетители, находящиеся в группе Гости, не могут оставлять комментарии к данной публикации.