вход на сайт

Имя пользователя :
Пароль :

Восстановление пароля Регистрация
(2002) Ирина Аллегрова / Grand Collection (Pop) [APE (image+.cue) lossless]
Рейтинг:
(голосов: 1)



[img]{THEME}/images/logopost.png[/img]



Исполнитель: Ирина Аллегрова
Альбом: Grand Collection
Тип альбома: Студийный (LP)
Год выпуска: 2002
Жанр: Pop
Формат: APE(image+.cue)
Битрейт: lossless
Продолжительность: 01:12:29

Треклист:
[03:15] 01.День рождения (А.Гарнизов - Е.Муравьёв)
[04:00] 02.Угонщица (В.Чайка - Л.Рубальская)
[04:05] 03.Мой ласковый и нежный зверь (И.Николаев - С.Сигарев)
[03:41] 04.Младший лейтенант (И.Николаев)
[04:07] 05.Транзитный пассажир (В.Чайка - Л.Рубальская)
[03:24] 06.Фотография 9х12 (И.Николаев)
[04:53] 07.Не было печали (И.Николаев)
[04:02] 08.Привет,Андрей! (И.Николаев)
[03:29] 09.Суженый,ряженый (И.Николаев - И.Кохановский)
[04:09] 10.Безответная любовь (И.Крутой - Р.Казакова)
[04:07] 11.Не улетай (И.Николаев)
[04:40] 12.Над пропастью во ржи (И.Крутой - И.Николаев)
[03:59] 13.Свечка (И.Николаев)
[04:12] 14.Как я соскучилась (И.Николаев)
[03:05] 15.Странник (И.Николаев)
[03:47] 16.Сама (В.Чайка)
[03:52] 17.Игрушка (И.Николаев - П.Жагун-Линник)
[05:33] 18.Я тебя отвоюю (И.Крутой - М.Цветаева)

Отчет EAC:
▼Exact Audio Copy V0.99 prebeta 3 from 28. July 2007

Отчёт EAC об извлечении, выполненном 5. октября 2009, 9:24

АЛЛЕГРОВА ИРИНА / "Grand Collection"

Дисковод: Optiarc DVD RW AD-7190A Adapter: 0ID: 0

Режим чтения : Достоверность
Использование точного потока : Да
Отключение кэша аудио: Да
Использование указателей C2: Нет

Коррекция смещения при чтении : 6
Способность читать области Lead-in и Lead-out : Нет
Заполнение пропущенных сэмплов тишиной: Да
Удаление блоков с тишиной в начале и конце: Нет
При вычислениях CRC использовались нулевые сэмплы : Да
Интерфейс : Встроенный Win32-интерфейс для Win NT/2000

Выходной формат : Внутренние WAV-операции
Формат сэмплов: 44.100 Гц; 16 бит; стерео


TOC извлечённого CD

Трек | Старт| Длительность | Начальный сектор | Конечный сектор
---------------------------------------------------------------------
1|0:00.00 |3:15.36 | 0|14660
2|3:15.36 |4:00.00 | 14661|32660
3|7:15.36 |4:05.68 | 32661|51103
4| 11:21.29 |3:41.10 | 51104|67688
5| 15:02.39 |4:07.08 | 67689&n
2fb3ea71367109195f1fdc4adb100d7540a2a51f(2002) Ирина Аллегрова / Grand Collection (Pop) [APE (image+.cue) lossless] (2002) Ирина Аллегрова / Grand Collection (Pop) [APE (image+.cue) lossless] " />

Аплоадер: Админ, дата: 27-03-2010, 00:41, торрент скачан: 359 раз

Понравилась раздача? Посмотрите эти:
  • (2002) a-ha / Lifelines (Alternative Rock, Synth-pop ) [FLAC (image + .cue ...
  • (2000) Tic Tac Toe / Ist der Ruf erst ruiniert... (Rap,Hip-hop) [Lossless, ...
  • (1998) The Ventures & The Shadows / Grand Collection(Instrumental, Guit ...
  • (2002) Dschinghis Khan / Star Collection (2CD) (Disco) [APE (image+.cue), l ...
  • (2009) Игорь Крутой и Дмитрий Хворостовский / Дежавю (Opera / Classical / I ...
  • (1994) Joy / Grand Collection (EuroDisco) [FLAC (image+.cue) lossless]
  • (2003) Joe Dassin / Grand Collection (PopMusic, Chanson) [FLAC (track+ cue) ...
  • (2006) Батырхан Шукенов/ Отан Ана (Pop) [FLAC (image+.cue) lossless]
  • (1985) BABYS GANG / Challenger (Pop,Italo Disco) [APE(image+.cue)lossless] ...
  • (2004) Genesis / Platinum Collection (Art Rock) [FLAC (image+.cue), lossles ...
  • (2003) Joe Dassin / Grand Collection (Pop/Chanson) [FLAC (tracks+.cue), los ...
  • (2003) THE BLACK EYED PEAS / Elephunk (RnB) [Ape (image+.cue), lossless]
  • (2009) Rihanna / Rated R (R`n`B) [APE (image+.cue)]
  • (2002) ИРИНА АЛЛЕГРОВА / Grand Collection (Pop) [MP3 320CBR]
  • (1993) Любовь Успенская / Любимый (шансон) [APE (image+.cue), lossless]
  • (2009) Челси / Точка возврата (Pop) [APE (image+.cue), lossless]
  • (2011) N1NT3NDO / N1NT3NDO (Rap) [APE (image+.сue), lossless]
  • (1988) Fausto Papetti / Grand Collection (POP, Jazz) [FLAC (image+.cue), lo ...
  • (2010) Александр Серов / Лучшие песни (серия «НОВАЯ КОЛЛЕКЦИЯ») (Pop) [Flac ...
  • (2004) Ex-Сектор Газа / Огненный рай (Punk-Rock) [FLAC (image+.cue), lossle ...
  • Информация
    Посетители, находящиеся в группе Гости, не могут оставлять комментарии к данной публикации.