вход на сайт

Имя пользователя :
Пароль :

Восстановление пароля Регистрация
(2007) Morandi / N3xt (Pop) [APE, (image + .cue), lossless]
Рейтинг:
(голосов: 1)



[img]{THEME}/images/logopost.png[/img]



Исполнитель: Morandi
Альбом: N3xt
Тип альбома: Студийный
Год выпуска: 2007
Жанр: Pop
Формат:APE, (image+.cue)
Битрейт: lossless
Продолжительность: 01:02:04
+Covers

Треклист:
1. Into The Blue
2. Angels (Love Is Answer)
3. Save Me - Feat. Helene
4. Afrika
5. Hiding From The Sun
6. Musica Mi Libertad - Feat. Корина Хириак
7. Get High - Feat. Helene
8. Dont Look Back
9. Sun Goes Down
10. Oh My God (Superfly)
11. N3xt - Feat. Fajra Amira
12. The Last Tribe
13. Love Is Tickling
14. Reality & Dreams - Feat. Lisa (Wassabi)
15. Falling Asleep (Bonus Track)

Отчет EAC :▼Exact Audio Copy V0.99 prebeta 4 from 23. January 2008

Отчёт EAC об извлечении, выполненном 23. апреля 2008, 0:48

Morandi / N3xt

Дисковод: TSSTcorpCD/DVDW SH-S182M Adapter: 1ID: 0

Режим чтения : Достоверность
Использование точного потока : Да
Отключение кэша аудио: Да
Использование указателей C2: Нет

Коррекция смещения при чтении : 6
Способность читать области Lead-in и Lead-out : Нет
Заполнение пропущенных сэмплов тишиной: Да
Удаление блоков с тишиной в начале и конце: Нет
При вычислениях CRC использовались нулевые сэмплы : Нет
Интерфейс : Встроенный Win32-интерфейс для Win NT/2000

Выходной формат : Внутренние WAV-операции
Формат сэмплов: 44.100 Гц; 16 бит; стерео


TOC извлечённого CD

Трек | Старт| Длительность | Начальный сектор | Конечный сектор
---------------------------------------------------------------------
1|0:00.00 |1:29.51 | 0| 6725
2|1:29.51 |3:50.06 |6726|23981
3|5:19.57 |4:37.65 | 23982|44821
4|9:57.47 |4:25.30 | 44822|64726
5| 14:23.02 |3:44.48 | 64727|81574
6| 18:07.50 |4:49.38 | 81575| 103287
7| 22:57.13 |&
229bb41a8038bee3d01cf8f10be2b388dcbbca98(2007) Morandi / N3xt (Pop) [APE, (image + .cue), lossless] (2007) Morandi / N3xt (Pop) [APE, (image + .cue), lossless] " />

Аплоадер: Админ, дата: 18-03-2010, 16:58, торрент скачан: 359 раз

Понравилась раздача? Посмотрите эти:
  • (2007) Morandi / N3XT (Pop) [MP3,320 kbps,CBR]
  • (дискография, 1983-2008) MADONNA (pop / dance) [WavPack (image+.cue) lossle ...
  • (2007) СТАС МИХАЙЛОВ - Лучшие песни (Шансон) [APE (image + .cue) lossless]
  • (2000) Tic Tac Toe / Ist der Ruf erst ruiniert... (Rap,Hip-hop) [Lossless, ...
  • (2008) НоГГано / Первый (Rap) [APE(image+cue), lossless]
  • (1994) Joy / Grand Collection (EuroDisco) [FLAC (image+.cue) lossless]
  • (2010) Баста / Баста 3 (Rap) [APE (image+.cue), lossless]
  • (2010) ST1M / Октябрь (Rap) [APE(image+.cue), lossless]
  • (2006) Батырхан Шукенов/ Отан Ана (Pop) [FLAC (image+.cue) lossless]
  • (2010) Хамиль и Змей (Каста) / ХЗ (Rap) [APE(image+.cue), lossless]
  • (2010) Noize MC / Последний Альбом (Rap) [APE(image+.cue), lossless]
  • (1998) Pharao / The Return (Eurodance) [APE (image+.cue)]
  • (1981) Boney M / Christmas Album (UnRemaster) (Disco) [APE (image + .cue), ...
  • (1984) Boney M / Ten Thousand Lightyears (Disco) [APE (image+.cue) lossles ...
  • (1985) BABYS GANG / Challenger (Pop,Italo Disco) [APE(image+.cue)lossless] ...
  • (2010) ДаБац (Da Budz) / Вершки Да Корешки(Rap) [APE (image+.cue), lossless ...
  • (2011) Within Temptation / The Unforgiving (Symphonic Gothic Metal) [FLAC ( ...
  • (2003) THE BLACK EYED PEAS / Elephunk (RnB) [Ape (image+.cue), lossless]
  • (2009) Rihanna / Rated R (R`n`B) [APE (image+.cue)]
  • (2009) Guf / Дома (Rap) [APE (image+.cue)]
  • (1993) Любовь Успенская / Любимый (шансон) [APE (image+.cue), lossless]
  • (2009) Челси / Точка возврата (Pop) [APE (image+.cue), lossless]
  • (1995) Yaki-Da / Pride (Pop, Eurodance) [FLAC (image+.сue), lossless]
  • (2004) Ex-Сектор Газа / Огненный рай (Punk-Rock) [FLAC (image+.cue), lossle ...
  • (2008) Студия 80 / Придуманный Мир (Pop) [FLAC (image+.cue), lossless]
  • Информация
    Посетители, находящиеся в группе Гости, не могут оставлять комментарии к данной публикации.