вход на сайт

Имя пользователя :
Пароль :

Восстановление пароля Регистрация
(2009) SHAKIRA / She Wolf (US Edition) (Pop) [Flac (tracks+.cue), lossless]
Рейтинг:
(голосов: 1)



[img]{THEME}/images/logopost.png[/img]



Исполнитель: Shakira
Альбом: She Wolf (US Edition)
Тип альбома: Студийный
Год выпуска: 2009
Жанр: Pop
Формат: Flac (tracks+.cue)
Битрейт: lossless
Продолжительность: 00:54:27

Tреклист:
01. She Wolf (03:10)
02. Did It Again (03:13)
03. Long Time (02:56)
04. Why Wait (03:43)
05. Good Stuff (03:17)
06. Men In This Town (03:35)
07. Gypsy (03:18)
08. Spy (Feat. Wyclef Jean) (03:27)
09. Mon Amour (04:06)
10. Loba (03:10)
11. Lo Hecho Esta Hecho (03:13)
12. Anos Luz (03:42)
13. Give It Up To Me (Feat. Lil Wayne) (03:05)
14. Did It Again (Feat. Kid Cudi) (03:48)
15. Gypsy (Live) (03:29)
16. She Wolf (Live) (03:09)


Отчет EAC:
▼Exact Audio Copy V0.99 prebeta 5 from 4. May 2009

EAC extraction logfile from 28. November 2009, 16:50

Shakira / She Wolf

Used drive: Optiarc BD ROM BC-5500S4 Adapter: 0ID: 1

Read mode : Secure
Utilize accurate stream : Yes
Defeat audio cache: Yes
Make use of C2 pointers : No

Read offset correction: 48
Overread into Lead-In and Lead-Out: No
Fill up missing offset samples with silence : Yes
Delete leading and trailing silent blocks : No
Null samples used in CRC calculations : Yes
Used interface: Native Win32 interface for Win NT & 2000
Gap handling: Appended to previous track

Used output format: User Defined Encoder
Selected bitrate: 192 kBit/s
Quality : High
Add ID3 tag : No
Command line compressor : C:Program Files (x86)Exact Audio CopyFlacflac.exe
Additional command line options : -V -8 -T "artist=%a" -T "title=%t" -T "album=%g" -T "date=%y" -T "tracknumber=%n" -T "genre=%m" %s


TOC of the extracted CD

Track | Start|Length| Start sector | End sector
---------------------------------------------------------
1|0:00.00 |3:10.17 | 0|14266
2|3:10.17 |3:13.60 | 14267|28801
3|6:24.02 |2:56.10 | 28802|42011
4|9:20.12 |3:43.00 | 42012|58736
5| 13:03.12 |&nb
d9c2cdf0751ca04d038af6beae02f039101d7bd6(2009) SHAKIRA / She Wolf (US Edition) (Pop) [Flac (tracks+.cue), lossless] (2009) SHAKIRA / She Wolf (US Edition) (Pop) [Flac (tracks+.cue), lossless] " />

Аплоадер: Админ, дата: 1-03-2010, 20:10, торрент скачан: 359 раз

Понравилась раздача? Посмотрите эти:
  • (2009) НОЧНЫЕ СНАЙПЕРЫ — Армия2009 (русский рок) [FLAC (lossless), tracks+. ...
  • (2009, OST) Atticus Ross: Книга Илая / The Book Of Eli (Score) [FLAC (track ...
  • (2009) ONE REPUBLIC / Waking Up (Pop-Rock/Alternative) [FLAC (tracks+.cue) ...
  • (2010)Scorpions/Sting In The Tail [FLAC (tracks+cue), lossless]
  • (2010) Deftones / Diamond Eyes (Nu metal / Alternative) [FLAC, (tracks+ cu ...
  • (2008) Pink / Funhouse (Pop) [FLAC (tracks) lossless]
  • (Дискография) GORILLAZ (Trip-Hop) [FLAC (tracks + .cue) lossless]
  • (2010) Eminem / Recovery (Rap / Hip-Hop) [FLAC (tracks+.cue) lossless]
  • (2010) Начало / Inception (by Hans Zimmer) (Score) [FLAC (tracks+.cue) loss ...
  • (2010) Michael Jackson - Michael (Pop) [FLAC, (tracks+.cue), lossless]
  • (2010) Нюша / Выбирать чудо (Pop) [FLAC(tracks+.cue), lossless]
  • (2009) Michael Jackson / The Stripped Mixes (POP) [Flac / Tracks + .cue]
  • (2009) Radiohead / Hail To The Thief [Collectors Edition: 2-nd CD] (Alterna ...
  • (2006) DMX / Year Of The Dog...Again (EU) (Rap) [FLAC (tracks)]
  • (2010) Ne-Yo / Libra Scale (Japanese Edition) (RnB) [FLAC (tracks+.cue) los ...
  • (2010) Rihanna / Loud (R&B) [FLAC (tracks+.cue), lossless]
  • (2003) DJ Zinc / Faster (DnB, Breaks) [ FLAC (tracks+.cue), lossless]
  • (2010) Morcheeba / Blood Like Lemonade ( Electronic, Downtempo, Pop, Trip-h ...
  • (2011) Electric Universe / Higher Modes (Psytrance, Full On) [FLAC (tracks+ ...
  • (2008) Scars on Broadway / Scars on Broadway (Japan Edition) (Alt.Metal/Exp ...
  • Информация
    Посетители, находящиеся в группе Гости, не могут оставлять комментарии к данной публикации.