вход на сайт

Имя пользователя :
Пароль :

Восстановление пароля Регистрация
(2004) Рома Жуков / Легендарные песни (Pop) [APE (image+.cue)]
Рейтинг:
(голосов: 1)



[img]{THEME}/images/logopost.png[/img]



Исполнитель: Рома Жуков
Альбом: Легендарные песни
Тип альбома: Студийный
Год выпуска: 2004
Жанр: Pop
Формат: APE (image+.cue)
Битрейт: lossless
Log-файл: Отсутствует
Продолжительность: 01:12:16

Tреклист:
▼01 - Танцующий дождь (06:13)
музыка: Жуков Р.; слова: Соколов В.
02 - Девченки, мои девченки (04:52)
музыка: Жуков Р.; слова: Костров С.
03 - Млечный путь (04:29)
музыка: Жуков Р.; слова: Костров С.
04 - На крыльях ночь (04:13)
музыка: Жуков Р.; слова: Соколов В.
05 - Первый снег
06 - Прошу тебя (04:46)
музыка: Жуков Р.; слова: Соколов В.
07 - Пыль мечты
08 - Никто не в силах мне помочь (04:05)
музыка: Жуков Р.; слова: Разина С.
09 - Перелетные птицы (06:30)
музыка: Жуков Р.; слова: Разина С.
10 - Ночная даль (04:53)
музыка: Жуков Р.; слова: Разина С.
11 - Милый мальчик мой (05:17)
музыка: Жуков Р.; слова: Костров С.
12 - Звездное такси (03:57)
музыка: Жуков Р.; слова: Соколов В.
13 - Слепой рассвет (04:08)
музыка: Жуков Р.; слова: Костров С.
14 - Фея (02:56)
музыка: Жуков Р.; слова: Соколов В.
15 - Я люблю вас, девочки

Отчет EAC:
▼Exact Audio Copy V0.99 prebeta 4 from 23. January 2008

Отчёт EAC об извлечении, выполненном 9. октября 2009, 13:32

Рома Жуков / Легендарные песни

Дисковод: TOSHIBA DVD-ROM SD-R1312 Adapter: 3ID: 0

Режим чтения : Достоверность
Использование точного потока : Да
Отключение кэша аудио: Да
Использование указателей C2: Нет

Коррекция смещения при чтении : 116
Способность читать области Lead-in и Lead-out : Нет
Заполнение пропущенных сэмплов тишиной: Да
Удаление блоков с тишиной в начале и конце: Нет
При вычислениях CRC использовались нулевые сэмплы : Да
Интерфейс : Установленный внешний ASPI-интерфейс

Выходной формат : Внутренние WAV-операции
Формат сэмплов: 44.100 Гц; 16 бит; стерео


TOC извлечённого CD

Трек | Старт| Длительность | Начальный сектор | Конечный сектор
---------------------------------------------------------------------
1|0:00.00 |6:12.73 | 0|27972
2|6:12.73 |4:51.38 | 27973|49835
3| 11:04.36 |4:28.73 | 49836|70008
4| 15:33.34 |4:13.08 | 70009|88991
5| 19:46.42 |5:37.23 |&n
efe15ee74fb65da604d3d98fafd8cae40645b172(2004) Рома Жуков / Легендарные песни (Pop) [APE (image+.cue)] (2004) Рома Жуков / Легендарные песни (Pop) [APE (image+.cue)] " />

Аплоадер: Админ, дата: 17-01-2010, 01:55, торрент скачан: 359 раз

Понравилась раздача? Посмотрите эти:
  • (2013) Рома Жуков / D.I.S.C.O. (Pop) [MP3, 320 / CBR]
  • (2010) Алибек Днишев / Песни военных лет (Военная песня) [FLAC (image+.cue) ...
  • (2011) Rena / Number One (Rap) [mp3, 320kbit/CBR]
  • (2008) НоГГано / Первый (Rap) [APE(image+cue), lossless]
  • (2004) VA / Инструментальная музыка - Лучшие мировые хиты (Instrumental) [A ...
  • (2004) VA / Инструментальная музыка - Лучшие мировые хиты Vol.6 (2CD) (Inst ...
  • (2004) VA / Инструментальная музыка - Лучшие мировые хиты Vol.7 (2CD) (Inst ...
  • (2009) Игорь Крутой и Дмитрий Хворостовский / Дежавю (Opera / Classical / I ...
  • (2010) ST1M / Октябрь (Rap) [APE(image+.cue), lossless]
  • (2005) плюм-Бум / Чистая правда (Funk, Reggae, Pop-Punk) [APE(image+.cue), ...
  • (2007) Хор Турецкого / Великая Музыка (2CD) (Choir, Folk, Aсapella) [FLAC ( ...
  • (Сборник, 2007-2010) VA / СЕРИЯ «ЗОЛОТОЙ АЛЬБОМ - GREATEST HITS» (5 CD) (Ша ...
  • (Сборник, 2007-2009) VA / Коллекция русского шансона «ЗВЁЗДНАЯ СЕРИЯ. 20 Лу ...
  • Хакинг мобильных телефонов( Жуков С.2006г.)
  • (2009) Rihanna / Rated R (R`n`B) [APE (image+.cue)]
  • (2010, сборник) VA / Дискотека Адмирал - Disco 80/90 по-новому! (POP) [MP3, ...
  • (2011) ШЕFF / Премиум (Rap) [MP3, 320 Кбит/с /CBR]
  • Птаха a.k.a. Зануда, Slim, Быба, Пёс, Дым, Ahimas, Dj Nik One / Сэмплер аль ...
  • (2009) Kamazz (3NT) / Завязал (Hip-Hop) [APE (image+.cue) lossless]
  • (2011) Стас Михайлов / Ты меня не отпускай (Шансон) [мр3, 320/CBR]
  • (2010) Александр Серов / Лучшие песни (серия «НОВАЯ КОЛЛЕКЦИЯ») (Pop) [Flac ...
  • (2004) Ex-Сектор Газа / Огненный рай (Punk-Rock) [FLAC (image+.cue), lossle ...
  • (2008) Студия 80 / Придуманный Мир (Pop) [FLAC (image+.cue), lossless]
  • USB и Сергей Жуков / Скажи зачем [2012, Pop, WEBRip 720p]
  • (2012) Денис Майданов / Лучшие песни (Серия "Музыка на почте") (Шансон) [FL ...
  • Информация
    Посетители, находящиеся в группе Гости, не могут оставлять комментарии к данной публикации.