вход на сайт

Имя пользователя :
Пароль :

Восстановление пароля Регистрация
(2009) MYLENE FARMER №5 On Tour (Live) (EuroPop) [ALAC(tracks), lossless]
Рейтинг:
(голосов: 1)



[img]{THEME}/images/logopost.png[/img]



Mylene Farmer - №5 On Tour (Live)

Жанр: EuroPop
Год выпуска диска: 2009
Производитель диска: France
Аудио кодек: ALAC
Тип рипа: tracks
Тип альбома: Live
Битрейт аудио:lossless
Продолжительность: 01:48:00

Трэклист:
01. Introduction - DEntre Les Morts 04:33
02. Paradis Inanimé 04:43
03. Lâme-Stram-Gram 05:27
04. Je Mennuie 04:26
05. Appelle Mon Numéro 07:10
06. XXL 04:30
07. A Quoi Je Sers... 05:07
08. Pourvu Quelles Soient Douces 05:02
09. Point De Suture 07:06
10. Nous Souviendrons-Nous 05:36
11. Rêver 05:23
12. Ainsi Soit Je... 04:18
13. Interlude Avant Que Lombre... 04:10
14. Libertine 05:35
15. Sans Contrefaçon 04:09
16. Je Te Rends Ton Amour 05:28
17. Dégénération 06:58
18. Désenchantée 07:42
19. Cest Dans Lair 06:08
20. Si JAvais Au Moins Revu Ton Visage 07:18

Отчет EAC CD1:
▼Exact Audio Copy V0.99 prebeta 5 from 4. May 2009
Отчёт EAC об извлечении, выполненном 23. декабря 2009, 18:31
Mylene Farmer / Nє5 on Tour (disc 1)
Дисковод: HL-DT-STDVDRAM GE20LU10 Adapter: 0ID: 1
Режим чтения : Достоверность
Использование точного потока : Да
Отключение кэша аудио: Да
Использование указателей C2: Нет
Коррекция смещения при чтении : 667
Способность читать области Lead-in и Lead-out : Нет
Заполнение пропущенных сэмплов тишиной: Да
Удаление блоков с тишиной в начале и конце: Нет
При вычислениях CRC использовались нулевые сэмплы : Да
Интерфейс : Встроенный Win32-интерфейс для Win NT/2000
Выходной формат : Внутренние WAV-операции
Формат сэмплов: 44.100 Гц; 16 бит; стерео
TOC извлечённого CD
Трек | Старт| Длительность | Начальный сектор | Конечный сектор
---------------------------------------------------------------------
1|0:00.00 |4:33.35 | 0|20509
2|4:33.35 |4:43.57 | 20510|41791
3|9:17.17 |5:27.26 | 41792|66342
4| 14:44.43 |4:26.02 | 66343|86294
5| 19:10.45 |7:10.17 | 86295| 118561
6| 26:20.62 |4:30.37 |118562| 138848
7| 30:51.24 |5:07.23 |
51fadc3aa23886f17548ce47a29b3bbec199b0d1(2009) MYLENE FARMER №5 On Tour (Live) (EuroPop) [ALAC(tracks), lossless] (2009) MYLENE FARMER №5 On Tour (Live) (EuroPop) [ALAC(tracks), lossless] " />

Аплоадер: Админ, дата: 6-01-2010, 01:42, торрент скачан: 359 раз

Понравилась раздача? Посмотрите эти:
  • (2013) Mylène Farmer (Mylene Farmer) / Je te dis tout (Pop, Electronic) [FL ...
  • (2009) Mylene Farmer / California collection (Pop) [mp3, 128-320kbps/CBR]
  • (2012) Mylene Farmer / A lOmbre (Pop) [MP3, 256/CBR]
  • (2011) Mylene Farmer / Best Of 2001-2011 (Pop) [MP3, 320 kbps/CBR]
  • (2009) НОЧНЫЕ СНАЙПЕРЫ — Южный полюс (русский рок, сингл) [FLAC (lossless), ...
  • (2000) Tic Tac Toe / Ist der Ruf erst ruiniert... (Rap,Hip-hop) [Lossless, ...
  • (2006) Батырхан Шукенов/ Отан Ана (Pop) [FLAC (image+.cue) lossless]
  • (Дискография, 1986-2010) Mylene Farmer (Pop) [APE (image+.cue), lossless]
  • (2011) АукцЫон / Юла (Rock) [APE (image+.cue), lossless]
  • (2003) Joe Dassin / Grand Collection (Pop/Chanson) [FLAC (tracks+.cue), los ...
  • (2012) The Rasmus / The Rasmus (Tour Edition) FLAC (tracks+.cue), lossless
  • Mylene Farmer / Mylenium tour [2000, Pop, DVD9]
  • (2003) THE BLACK EYED PEAS / Elephunk (RnB) [Ape (image+.cue), lossless]
  • (2009) Rihanna / Rated R (R`n`B) [APE (image+.cue)]
  • ( 2001) Воскресение / Звездная коллекция (Rock) [FLAC (image+.cue) lossless ...
  • Mylene Farmer / Stade de France [2010, Pop, BDRip 720p]
  • (1993) Любовь Успенская / Любимый (шансон) [APE (image+.cue), lossless]
  • Mylene Farmer / Stade de France [2010, Pop, BDRip] by Torrent Club
  • (2009) Челси / Точка возврата (Pop) [APE (image+.cue), lossless]
  • (2009, Cборник) Madonna / Greatest Hits [CD1 + CD2] (Pop) [APE (image+.cue) ...
  • Mylene Farmer / Stade de France [2009, Pop, Blu-ray]
  • (2011) Slim & Konstantah / Азимут (Rap) [ALAC(tracks)lossless]
  • (2011) N1NT3NDO / N1NT3NDO (Rap) [APE (image+.сue), lossless]
  • (1988) Fausto Papetti / Grand Collection (POP, Jazz) [FLAC (image+.cue), lo ...
  • (2008) Студия 80 / Придуманный Мир (Pop) [FLAC (image+.cue), lossless]
  • Информация
    Посетители, находящиеся в группе Гости, не могут оставлять комментарии к данной публикации.