вход на сайт

Имя пользователя :
Пароль :

Восстановление пароля Регистрация
(дискография, 1983-2008) MADONNA (pop / dance) [WavPack (image+.cue) lossless]
Рейтинг:
(голосов: 1)



[img]{THEME}/images/logopost.png[/img]



Исполнитель: Madonna
Жанр: pop / dance
Страна: США
Формат: WavPack (image+.cue), вшитые индексные карты
Битрейт: lossless
Продолжительность: 11:05:38

Альбомы:
1983 - Madonna (2001 Remastered)▼

Год выпуска: 1983
Продолжительность: 00:55:34

Треклист:
01 - Lucky Star
02 - Borderline
03 - Burning Up
04 - I Know It
05 - Holiday
06 - Think Of Me
07 - Physical Attraction
08 - Everybody
09 - Burning Up (12 Version)
10 - Lucky Star (New Mix)

Отчет EAC:▼
Exact Audio Copy V0.99 prebeta 4 from 23. January 2008

Отчёт EAC об извлечении, выполненном 1. июня 2008, 17:22

Madonna / Madonna (Remastered)

Дисковод: PIONEER DVD-RWDVR-212 Adapter: 1ID: 1

Режим чтения : Достоверность
Использование точного потока : Да
Отключение кэша аудио: Да
Использование указателей C2: Нет

Коррекция смещения при чтении : 48
Способность читать области Lead-in и Lead-out : Нет
Заполнение пропущенных сэмплов тишиной: Да
Удаление блоков с тишиной в начале и конце: Нет
При вычислениях CRC использовались нулевые сэмплы : Нет
Интерфейс : Встроенный Win32-интерфейс для Win NT/2000

Выходной формат : Внутренние WAV-операции
Формат сэмплов: 44.100 Гц; 16 бит; стерео

TOC извлечённого CD

Трек | Старт| Длительность | Начальный сектор | Конечный сектор
---------------------------------------------------------------------
1|0:00.00 |5:37.65 | 0|25339
2|5:37.65 |5:20.68 | 25340|49407
3| 10:58.58 |3:45.25 | 49408|66307
4| 14:44.08 |3:47.17 | 66308|83349
5| 18:31.25 |6:10.55 | 83350| 111154
6| 24:42.05 |4:54.70 |111155| 133274
7| 29:37.00 |6:39.45 |133275| 163244
8| 36:16.45 |6:02.33 |163245|&nb
9a839908b4ff8281f728916abe9c33c021b8c23c(дискография, 1983-2008) MADONNA (pop / dance) [WavPack (image+.cue) lossless] (дискография, 1983-2008) MADONNA (pop / dance) [WavPack (image+.cue) lossless] " />

Аплоадер: Админ, дата: 9-09-2009, 23:23, торрент скачан: 359 раз

Понравилась раздача? Посмотрите эти:
  • (1989, 1991, 1992, 1993) Nirvana — 4 альбома (Grunge) [WavPack (image+.cue) ...
  • (2009) НОЧНЫЕ СНАЙПЕРЫ — Живаго в Лужниках (русский рок) [WAVPack (lossless ...
  • (2000) Tic Tac Toe / Ist der Ruf erst ruiniert... (Rap,Hip-hop) [Lossless, ...
  • (2008) НоГГано / Первый (Rap) [APE(image+cue), lossless]
  • (2007) Morandi / N3xt (Pop) [APE, (image + .cue), lossless]
  • (2010) Баста / Баста 3 (Rap) [APE (image+.cue), lossless]
  • (2010) ST1M / Октябрь (Rap) [APE(image+.cue), lossless]
  • (2006) Батырхан Шукенов/ Отан Ана (Pop) [FLAC (image+.cue) lossless]
  • (1998) Pharao / The Return (Eurodance) [APE (image+.cue)]
  • (1984) Boney M / Ten Thousand Lightyears (Disco) [APE (image+.cue) lossles ...
  • (1985) BABYS GANG / Challenger (Pop,Italo Disco) [APE(image+.cue)lossless] ...
  • (2010) ДаБац (Da Budz) / Вершки Да Корешки(Rap) [APE (image+.cue), lossless ...
  • (2011) Within Temptation / The Unforgiving (Symphonic Gothic Metal) [FLAC ( ...
  • (2011) АлисА / 20.12 (Русский Рок) [WavPack (image+.cue), lossless]
  • (Дискография, 1983-1997) Stevie Ray Vaughan (Blues) [APE (image+.cue), loss ...
  • (2003) THE BLACK EYED PEAS / Elephunk (RnB) [Ape (image+.cue), lossless]
  • (2009) Rihanna / Rated R (R`n`B) [APE (image+.cue)]
  • (2008) БандЭрос / Коламбия Пикчерз Не Представляет. Новое Издание(R&B) [APE ...
  • (1993) Любовь Успенская / Любимый (шансон) [APE (image+.cue), lossless]
  • (2009) Челси / Точка возврата (Pop) [APE (image+.cue), lossless]
  • (2009, Cборник) Madonna / Greatest Hits [CD1 + CD2] (Pop) [APE (image+.cue) ...
  • (Дискография, 2005-2008) Ёлка (R&B, Reggae, Pop) [APE (image+.cue); FLAC (i ...
  • (1995) Yaki-Da / Pride (Pop, Eurodance) [FLAC (image+.сue), lossless]
  • (2004) Ex-Сектор Газа / Огненный рай (Punk-Rock) [FLAC (image+.cue), lossle ...
  • (2008) Студия 80 / Придуманный Мир (Pop) [FLAC (image+.cue), lossless]
  • Информация
    Посетители, находящиеся в группе Гости, не могут оставлять комментарии к данной публикации.