вход на сайт

Имя пользователя :
Пароль :

Восстановление пароля Регистрация
(2013) Alizee / 5 (French Pop) [FLAC (image+.cue), lossless]
Рейтинг:
(голосов: 1)



[img]{THEME}/images/logopost.png[/img]



Исполнитель: Alizee
Альбом: 5
Тип альбом: Студийный
Год выпуска: 2013
Жанр: French Pop
Страна (Издатель, Каталожный номер): France(Sony Music, 88976546392)
Аудиокодек: FLAC (*.flac)
Тип рипа: image+.cue
Битрейт: lossless
Лог файлы: присутствуют
Наличие сканов в содержимом раздачи: Есть
Продолжительность: 00:37:15

last.fm| Wikipedia | Facebook

Об исполнителе: Alizee - французская певица.На данный момент официально выпущено пять студийных альбома и один концертный.Первый сингл Ализе на песню «Moi… Lolita» («Я… Лолита») вышел 19 мая 2000 года и сразу же прочно закрепился в десятке хитов на лучших хит-парадах и не покидая их в течение полугода, а копии сингла были проданы тиражом более 1.5 миллиона копий.


Tреклист:
01. A cause de lautomne (3:55)
02. 10 ans (3:01)
03. Je veux bien (3:39)
04. Mon chevalier (3:04)
05. Le dernier souffle (2:51)
06. Boxing club (2:54)
07. Jeune fille (2:34)
08. La guerre en dentelle (4:26)
09. Si tu es un homme (4:35)
10. Happy End (3:37)
11. Dans mon sac (2:39)
Лог создания рипа ▼Text
Exact Audio Copy V1.0 beta 3 from 29. August 2011

EAC extraction logfile from 5. April 2013, 15:10

Alizee / 5

Used drive : HL-DT-STDVDRAM GSA-H42N Adapter: 0 ID: 0

Read mode : Secure
Utilize accurate stream : Yes
Defeat audio cache : Yes
Make use of C2 pointers : No

Read offset correction : 667
Overread into Lead-In and Lead-Out : No
Fill up missing offset samples with silence : Yes
Delete leading and trailing silent blocks : No
Null samples used in CRC calculations : Yes
Used interface : Native Win32 interface for Win NT & 2000

Used output format : User Defined Encoder
Selected bitrate : 1024 kBit/s
Quality : High
Add ID3 tag : No
Command line compressor : C:Program FilesExact Audio CopyFLACFLAC.EXE
Additional command line options : -8 -V -T "ARTIST=%artist%" -T "TITLE=%title%" -T "ALBUM=%albumtitle%" -T "DATE=%year%" -T "TRACKNUMBER=%tracknr%" -T "GENRE=%genre%" -T "COMMENT=%comment%" -T "BAND=%albuminterpret%" -T "ALBUMARTIST=%albuminterpret%" -T "DISCNUMBER=%cdnumber%" -T "TOTALTRACKS=%numtracks%" %source% -o %dest%


TOC of the extracted CD

Track | Start | Length | Start sector | End sector
---------------------------------------------------------
1 | 0:00.00 | 3:55.07 | 0 | 17631
2 | 3:55.07 | 3:01.22 | 17632 | 31228
3 | 6:56.29 | 3:39.08 | 31229 | 47661
4 | 10:35.37 | 3:04.16 | 47662 | 61477
5 | 13:39.53 | 2:51.25 | 61478 | 74327
6 | 16:31.03 | 2:54.18 | 74328 | 87395
&
f9b0594b363b5bc3b25b366150ff1130f32c8dc5(2013) Alizee / 5 (French Pop) [FLAC (image+.cue), lossless] (2013) Alizee / 5 (French Pop) [FLAC (image+.cue), lossless] " />

Аплоадер: Админ, дата: 5-04-2013, 21:49, торрент скачан: 359 раз

Понравилась раздача? Посмотрите эти:
  • (2013) The Holmes Brothers / Brotherhood (Modern Electric Blues, Soul, Gosp ...
  • (2013) Buddy Guy / Rhythm & Blues (2CD) (Blues) [FLAC (image+.cue), Lossles ...
  • (2013) Innes Sibun / Lost In The Wilderness (Blues Rock, Rock) [FLAC (image ...
  • (2013) The Hamburg Blues Band / Friends For A LIVEtime (Blues Rock, Rock) [ ...
  • (2013) Leslie West / Still Climbing (Rock, Hard Rock, Blues Rock) [FLAC (im ...
  • (2013) Paul McCartney / New (Deluxe Edition) (Rock) [FLAC (image,+.cue), lo ...
  • (2013) Elton John / The Diving Board (Rock, Pop Rock) [FLAC (image+.cue), L ...
  • (2013) Govt Mule / Shout! (2CD) (Blues Rock) [FLAC (image+.cue), Lossless]
  • (2013) Prodigy & The Alchemist / Albert Einstein (Underground Hip-Hop) [FLA ...
  • (2010) Clean Tears / Innerve (Techno, Vocaloid) [FLAC (tracks+.cue), lossle ...
  • (2012) Marconi Union / Different Colours (Post Rock, Downtempo, Ambient) [F ...
  • (2008, Сборник) VA / Relax Piano - Yesterday - Trai Tim Mua Thu - Vol.7 (Ne ...
  • (2012) Tomandandy / Resident Evil: Retribution (Score, Soundtrack)[FLAC (tr ...
  • (2012, Сборник) VA / Новогодняя тридцатка 2013 (Шансон) [FLAC (image+.cue), ...
  • (1996) The Rasmus / Peep (Finnish Version) (Alternative Rock) [FLAC (tracks ...
  • (2012) Les Friction / Les Friction (Alt. Rock/Neo-Classical/Orchestral) [FL ...
  • (2011) SeeS / The enD (Progressive/Math Metal) [FLAC (tracks+.cue), lossles ...
  • (2011) Volumes / Via (Progressive Metalcore/Math Metal) [FLAC (image+.cue), ...
  • (2012) Our Lady Peace / Curve (Alternative/Rock) [FLAC (tracks+.cue), lossl ...
  • (2012) For Today / Immortal (Metalcore, Hardcore, Christian) [FLAC (tracks+ ...
  • Информация
    Посетители, находящиеся в группе Гости, не могут оставлять комментарии к данной публикации.